<svg xmlns="http://www.w3.org/2000/svg"><metadata>This is a custom SVG webfont generated by Font Squirrel. Copyright : Digitized data copyright 20102011 Google Corporation Foundry : Ascender Corporation Foundry URL : httpwwwascendercorpcom</metadata><defs><font id="OpenSansLightItalic" horiz-adv-x="1128"><font-face ascent="1638" descent="-410" units-per-em="2048"/><glyph d="M-233 -383q53 -16 100 -16q88 0 134 53t75 186l246 1166h-205l14 67l205 14l35 160q35 168 116.5 244t227.5 76q73 0 166 -31l-25 -80q-87 27 -147 27q-96 0 -153.5 -53.5t-84.5 -178.5l-35 -164h477l35 160q35 168 116.5 244t227.5 76q73 0 166 -31l-24 -80 q-87 27 -148 27q-97 0 -154.5 -54.5t-82.5 -177.5l-35 -164h248l-17 -81h-248l-252 -1190q-34 -165 -105.5 -236.5t-193.5 -71.5q-48 0 -102 19v90q53 -16 100 -16q88 0 134 53t75 186l244 1166h-477l-252 -1190q-33 -161 -104 -234.5t-195 -73.5q-48 0 -102 19v90z" horiz-adv-x="1155" unicode="ﬀ"/><glyph d="M641 0l231 1087h96l-229 -1087h-98zM915 1366q0 55 22 88t60 33q57 0 57 -72q0 -57 -22 -90t-57 -33q-29 0 -44.5 19.5t-15.5 54.5zM-250 -383q53 -16 100 -16q88 0 134 53t75 186l246 1166h-205l14 67l205 14l35 160q35 168 116.5 244t227.5 76q73 0 166 -31l-25 -80 q-87 27 -147 27q-96 0 -153.5 -53.5t-84.5 -178.5l-35 -164h248l-16 -81h-248l-252 -1190q-33 -161 -104 -234.5t-195 -73.5q-48 0 -102 19v90z" horiz-adv-x="1040" unicode="ﬁ"/><glyph d="M643 0l334 1556h94l-334 -1556h-94zM-250 -383q53 -16 100 -16q88 0 134 53t75 186l246 1166h-205l14 67l205 14l35 160q35 168 116.5 244t227.5 76q73 0 166 -31l-25 -80q-87 27 -147 27q-96 0 -153.5 -53.5t-84.5 -178.5l-35 -164h248l-16 -81h-248l-252 -1190 q-33 -161 -104 -234.5t-195 -73.5q-48 0 -102 19v90z" horiz-adv-x="1042" unicode="ﬂ"/><glyph d="M-250 -383q53 -16 100 -16q88 0 134 53t75 186l246 1166h-205l14 67l205 14l35 160q35 168 116.5 244t227.5 76q73 0 166 -31l-25 -80q-87 27 -147 27q-96 0 -153.5 -53.5t-84.5 -178.5l-35 -164h477l35 160q35 168 116.5 244t227.5 76q73 0 166 -31l-24 -80 q-87 27 -148 27q-97 0 -154.5 -54.5t-82.5 -177.5l-35 -164h248l-17 -81h-248l-252 -1190q-34 -165 -105.5 -236.5t-193.5 -71.5q-48 0 -102 19v90q53 -16 100 -16q88 0 134 53t75 186l244 1166h-477l-252 -1190q-33 -161 -104 -234.5t-195 -73.5q-48 0 -102 19v90zM1217 0 l231 1087h96l-229 -1087h-98zM1491 1366q0 55 22 88t60 33q57 0 57 -72q0 -57 -22 -90t-57 -33q-29 0 -44.5 19.5t-15.5 54.5z" horiz-adv-x="1616" unicode="ﬃ"/><glyph d="M-250 -383q53 -16 100 -16q88 0 134 53t75 186l246 1166h-205l14 67l205 14l35 160q35 168 116.5 244t227.5 76q73 0 166 -31l-25 -80q-87 27 -147 27q-96 0 -153.5 -53.5t-84.5 -178.5l-35 -164h477l35 160q35 168 116.5 244t227.5 76q73 0 166 -31l-24 -80 q-87 27 -148 27q-97 0 -154.5 -54.5t-82.5 -177.5l-35 -164h248l-17 -81h-248l-252 -1190q-34 -165 -105.5 -236.5t-193.5 -71.5q-48 0 -102 19v90q53 -16 100 -16q88 0 134 53t75 186l244 1166h-477l-252 -1190q-33 -161 -104 -234.5t-195 -73.5q-48 0 -102 19v90zM1227 0 l334 1556h94l-334 -1556h-94z" horiz-adv-x="1626" unicode="ﬄ"/><glyph horiz-adv-x="532"/><glyph horiz-adv-x="532"/><glyph horiz-adv-x="532"/><glyph d="M80 57q0 56 25 88.5t69 32.5q66 0 66 -72q0 -53 -25 -87.5t-68 -34.5q-67 0 -67 73zM186 377l203 1085h119l-260 -1085h-62z" horiz-adv-x="502" unicode="!"/><glyph d="M248 934l80 528h127l-146 -528h-61zM578 934l79 528h127l-145 -528h-61z" horiz-adv-x="721" unicode="&quot;"/><glyph d="M82 451l8 79h299l119 398h-297l8 80h311l134 454h90l-136 -454h365l135 454h86l-135 -454h285l-8 -80h-302l-118 -398h303l-8 -79h-320l-133 -451h-90l135 451h-360l-134 -451h-88l134 451h-283zM475 530h363l120 398h-362z" horiz-adv-x="1323" unicode="#"/><glyph d="M141 182v94q65 -34 153.5 -53.5t160.5 -19.5l110 512q-110 53 -153 91t-66.5 87.5t-23.5 116.5q0 155 105.5 250.5t272.5 99.5l41 192h80l-41 -192q149 -5 277 -68l-35 -78q-110 61 -256 70l-109 -514q124 -60 172.5 -99.5t73.5 -88.5t25 -115q0 -151 -110.5 -243 t-297.5 -103l-53 -240h-82l51 240q-79 2 -158 18t-137 43zM410 1018q0 -78 37 -128.5t137 -96.5l102 491q-134 -9 -205 -80t-71 -186zM537 203q142 7 223.5 74.5t81.5 183.5q0 76 -48 129.5t-157 97.5z" unicode="$"/><glyph d="M145 862q0 160 52 312t138 229.5t193 77.5q232 0 232 -283q0 -175 -50 -327t-136 -230t-197 -78q-112 0 -172 75.5t-60 223.5zM213 0l1135 1462h110l-1139 -1462h-106zM231 868q0 -115 41 -173t113 -58q84 0 148.5 72t102.5 204t38 277q0 109 -36 163t-114 54 q-79 0 -145 -71.5t-107 -203t-41 -264.5zM905 276q0 160 52 312t138 229.5t193 77.5q121 0 176.5 -71.5t55.5 -211.5q0 -175 -50 -327t-136 -230t-197 -78q-112 0 -172 75.5t-60 223.5zM991 283q0 -116 41 -174t113 -58q130 0 209.5 166.5t79.5 386.5q0 109 -36 163t-114 54 q-80 0 -146.5 -72.5t-106.5 -202.5t-40 -263z" horiz-adv-x="1556" unicode="%"/><glyph d="M78 324q0 162 99 277.5t325 215.5l-41 67q-78 128 -78 251q0 157 101 253.5t264 96.5q145 0 227 -76.5t82 -206.5q0 -85 -41 -154t-121 -128t-256 -138l330 -463q73 75 135.5 176.5t91.5 186.5h111q-102 -247 -285 -436l184 -246h-123l-131 184q-121 -108 -242 -156 t-266 -48q-167 0 -266.5 94t-99.5 250zM176 328q0 -119 78 -192t211 -73q108 0 211.5 42.5t222.5 146.5l-352 493q-164 -79 -232 -134.5t-103.5 -124t-35.5 -158.5zM485 1135q0 -132 109 -281q203 89 279.5 163.5t76.5 182.5q0 91 -56.5 143t-145.5 52q-125 0 -194 -68 t-69 -192z" horiz-adv-x="1331" unicode="&amp;"/><glyph d="M254 934l80 528h127l-146 -528h-61z" horiz-adv-x="403" unicode="'"/><glyph d="M104 270q0 343 122 633t382 559h105q-259 -276 -384.5 -568t-125.5 -618q0 -317 127 -600h-80q-146 262 -146 594z" horiz-adv-x="526" unicode="("/><glyph d="M-156 -324q257 274 383.5 566.5t126.5 619.5q0 148 -28.5 294t-98.5 306h80q146 -262 146 -594q0 -345 -123.5 -636t-380.5 -556h-105z" horiz-adv-x="526" unicode=")"/><glyph d="M233 1217l39 102l394 -168l47 408l121 -19l-109 -405l438 8l-8 -107l-416 29l181 -401l-115 -37l-135 417l-285 -348l-78 78l318 318z" horiz-adv-x="1137" unicode="*"/><glyph d="M162 672v100h401v404h101v-404h401v-100h-401v-400h-101v400h-401z" unicode="+"/><glyph d="M-90 -264q79 132 141 271t88 231h111l8 -23q-34 -92 -114 -233.5t-160 -245.5h-74z" horiz-adv-x="451" unicode=","/><glyph d="M82 502l18 90h457l-16 -90h-459z" horiz-adv-x="629" unicode="-"/><glyph d="M82 55q0 56 25 88.5t69 32.5q66 0 66 -72q0 -53 -25 -87.5t-67 -34.5q-68 0 -68 73z" horiz-adv-x="485" unicode="."/><glyph d="M-100 0l815 1462h112l-817 -1462h-110z" horiz-adv-x="641" unicode="/"/><glyph d="M139 494q0 186 44.5 381.5t124 334t187 207t240.5 68.5q340 0 340 -469q0 -201 -41 -405t-116.5 -346t-183.5 -213.5t-242 -71.5q-176 0 -264.5 126.5t-88.5 387.5zM242 504q0 -222 62.5 -329t197.5 -107q139 0 244 112t166 337t61 489q0 199 -59.5 295t-190.5 96 q-134 0 -241.5 -113t-173.5 -329t-66 -451z" unicode="0"/><glyph d="M354 1204l406 258h90l-313 -1462h-105l225 1055q19 92 74 293q-42 -36 -75.5 -61t-249.5 -161z" unicode="1"/><glyph d="M39 0l22 104l449 402q198 177 284 276.5t126.5 186.5t40.5 180q0 112 -66 178t-197 66q-176 0 -333 -129l-54 73q180 146 394 146q173 0 268.5 -85t95.5 -237q0 -110 -43.5 -208.5t-141.5 -211.5t-311 -303l-383 -338v-4h736l-17 -96h-870z" unicode="2"/><glyph d="M55 53v101q172 -86 344 -86q197 0 303.5 89.5t106.5 252.5q0 145 -89 223t-247 78h-117l21 96h110q209 0 333 95.5t124 258.5q0 114 -63.5 175t-188.5 61q-167 0 -344 -131l-49 75q84 67 188 104.5t218 37.5q161 0 252.5 -82.5t91.5 -226.5q0 -162 -106 -275t-286 -143 v-4q117 -24 185.5 -115.5t68.5 -226.5q0 -134 -64 -233t-179.5 -148t-274.5 -49q-96 0 -184.5 20.5t-153.5 52.5z" unicode="3"/><glyph d="M23 371l20 96l881 1010h118l-215 -1018h265l-21 -88h-264l-80 -371h-96l80 371h-688zM150 459h579q79 369 119 558.5t86 354.5h-4q-66 -91 -129 -166z" unicode="4"/><glyph d="M88 51v107q170 -90 340 -90q208 0 328.5 114.5t120.5 313.5q0 140 -85 219.5t-225 79.5q-133 0 -243 -41l-66 49l193 659h624l-18 -96h-541l-149 -516q98 29 215 29q188 0 292.5 -102t104.5 -279q0 -237 -148 -377.5t-407 -140.5q-84 0 -177.5 20t-158.5 51z" unicode="5"/><glyph d="M170 428q0 283 105 544.5t269.5 385t383.5 123.5q123 0 182 -21l-18 -90q-86 23 -170 23q-233 0 -393.5 -174t-233.5 -502h8q68 94 164 143t211 49q161 0 250.5 -100.5t89.5 -282.5q0 -156 -60 -281t-171 -195t-257 -70q-171 0 -265.5 119t-94.5 329zM270 414 q0 -164 72.5 -255t200.5 -91q112 0 196.5 58.5t130 162t45.5 229.5q0 146 -67 224.5t-195 78.5q-81 0 -154 -31.5t-129 -87t-78 -115t-22 -173.5z" unicode="6"/><glyph d="M244 0l796 1366h-766l23 96h858l-20 -110l-779 -1352h-112z" unicode="7"/><glyph d="M98 326q0 159 100.5 268.5t321.5 187.5q-100 72 -144 152t-44 180q0 159 114 265t291 106q163 0 258 -85t95 -229q0 -138 -84 -234.5t-285 -172.5q130 -78 190 -170.5t60 -208.5t-58 -208t-165.5 -144.5t-260.5 -52.5q-178 0 -283.5 92.5t-105.5 253.5zM201 340 q0 -136 77.5 -206.5t219.5 -70.5q168 0 270 91t102 233q0 104 -62 189t-198 157q-218 -73 -313.5 -167.5t-95.5 -225.5zM428 1114q0 -91 41.5 -159t157.5 -142q192 62 279 144t87 206q0 109 -70.5 172.5t-195.5 63.5q-130 0 -214.5 -82t-84.5 -203z" unicode="8"/><glyph d="M115 2v90q87 -29 192 -29q474 0 627 674h-8q-140 -192 -367 -192q-162 0 -255 105t-93 284q0 155 59.5 281t170.5 196t257 70q174 0 267.5 -115.5t93.5 -333.5q0 -288 -101.5 -548t-263.5 -382t-393 -122q-114 0 -186 22zM313 942q0 -145 67.5 -225t192.5 -80 q83 0 157.5 32.5t129 87.5t76.5 114t22 176q0 166 -71 256t-201 90q-112 0 -197.5 -58.5t-130.5 -162.5t-45 -230z" unicode="9"/><glyph d="M102 55q0 56 25.5 88.5t69.5 32.5q65 0 65 -72q0 -55 -25.5 -88.5t-66.5 -33.5q-68 0 -68 73zM260 989q0 57 25.5 89t68.5 32q66 0 66 -72q0 -55 -25 -89t-67 -34q-68 0 -68 74z" horiz-adv-x="485" unicode=":"/><glyph d="M-53 -264q79 132 141 271t88 231h111l8 -23q-35 -96 -118.5 -242t-156.5 -237h-73zM266 989q0 57 25.5 89t68.5 32q66 0 66 -72q0 -55 -25 -89t-67 -34q-68 0 -68 74z" horiz-adv-x="485" unicode=";"/><glyph d="M137 676v74l914 471v-103l-801 -399l801 -350v-107z" unicode="&lt;"/><glyph d="M168 461v98h903v-98h-903zM168 885v100h903v-100h-903z" unicode="="/><glyph d="M170 262v107l801 350l-801 399v103l915 -471v-74z" unicode="&gt;"/><glyph d="M170 59q0 56 25 88.5t69 32.5q66 0 66 -71q0 -54 -24.5 -88.5t-67.5 -34.5q-68 0 -68 73zM182 1376q85 49 171.5 78t187.5 29q159 0 250.5 -84.5t91.5 -229.5q0 -127 -66 -234t-231 -226q-85 -61 -132.5 -108.5t-73 -95t-46.5 -143.5h-92l6 29q29 132 82 206.5t157 147.5 q118 84 175 145.5t86.5 127.5t29.5 141q0 108 -67.5 170t-182.5 62q-139 0 -307 -101z" horiz-adv-x="799" unicode="?"/><glyph d="M125 508q0 276 121.5 493.5t337 337t473.5 119.5q189 0 330.5 -72.5t221 -213t79.5 -314.5q0 -179 -56 -323.5t-154.5 -227t-211.5 -82.5q-98 0 -154.5 55t-56.5 144h-4q-54 -97 -132.5 -148t-168.5 -51q-112 0 -178 73t-66 202q0 156 63 283t178 198.5t261 71.5 q122 0 252 -52l-84 -315q-39 -140 -39 -221q0 -71 34.5 -111.5t100.5 -40.5q86 0 160 73.5t117.5 198t43.5 251.5q0 156 -65 277t-187 188t-292 67q-235 0 -424.5 -108.5t-295.5 -304t-106 -439.5q0 -288 155 -449t435 -161q207 0 420 82v-90q-210 -82 -428 -82 q-203 0 -357.5 82.5t-238.5 239t-84 370.5zM610 506q0 -92 40.5 -142.5t113.5 -50.5q101 0 180.5 89t124.5 255l78 289q-66 23 -139 23q-113 0 -204.5 -59t-142.5 -165.5t-51 -238.5z" horiz-adv-x="1724" unicode="@"/><glyph d="M-111 0l822 1468h67l201 -1468h-105l-69 520h-512l-287 -520h-117zM344 612h449l-39 291q-31 242 -39 402q-30 -63 -64.5 -130t-306.5 -563z" horiz-adv-x="1059" unicode="A"/><glyph d="M102 0l310 1462h379q190 0 290.5 -84t100.5 -241q0 -153 -90 -249t-254 -124v-4q125 -31 188.5 -113.5t63.5 -204.5q0 -205 -140.5 -323.5t-390.5 -118.5h-457zM223 90h342q201 0 309.5 87.5t108.5 256.5q0 145 -90 216t-275 71h-260zM377 811h278q206 0 313 81t107 238 q0 119 -78 180.5t-229 61.5h-272z" horiz-adv-x="1202" unicode="B"/><glyph d="M170 535q0 266 104.5 488t284.5 341t402 119q177 0 307 -68l-45 -90q-55 30 -124.5 47t-137.5 17q-197 0 -351.5 -104.5t-245 -304.5t-90.5 -441q0 -225 110.5 -346t317.5 -121q140 0 304 51v-94q-156 -49 -316 -49q-252 0 -386 145t-134 410z" horiz-adv-x="1169" unicode="C"/><glyph d="M102 0l310 1462h305q282 0 426.5 -147.5t144.5 -435.5q0 -253 -109.5 -461.5t-300.5 -313t-446 -104.5h-330zM221 90h209q226 0 394.5 94.5t261 275.5t92.5 412q0 498 -476 498h-206z" horiz-adv-x="1350" unicode="D"/><glyph d="M102 0l310 1462h727l-21 -94h-624l-117 -553h590l-21 -94h-588l-135 -627h627l-21 -94h-727z" horiz-adv-x="1067" unicode="E"/><glyph d="M102 0l310 1462h708l-20 -94h-604l-134 -620h570l-21 -95h-569l-137 -653h-103z" horiz-adv-x="981" unicode="F"/><glyph d="M170 547q0 265 105 483.5t283.5 335.5t395.5 117q113 0 203 -19t184 -59l-38 -94q-110 46 -189.5 62t-167.5 16q-184 0 -339 -107.5t-244 -301.5t-89 -433q0 -229 114.5 -352t326.5 -123q155 0 309 47l117 526h-303l18 90h406l-150 -682q-211 -73 -405 -73 q-257 0 -397 146t-140 421z" horiz-adv-x="1374" unicode="G"/><glyph d="M102 0l310 1462h102l-139 -649h760l137 649h100l-309 -1462h-100l151 719h-760l-149 -719h-103z" horiz-adv-x="1366" unicode="H"/><glyph d="M102 0l310 1462h98l-309 -1462h-99z" horiz-adv-x="504" unicode="I"/><glyph d="M-324 -336l11 92q57 -20 137 -20q213 0 262 241l309 1485h105l-314 -1491q-35 -170 -125 -250.5t-241 -80.5q-48 0 -88 8t-56 16z" horiz-adv-x="477" unicode="J"/><glyph d="M102 0l310 1462h102l-158 -723l133 121l680 602h138l-699 -610l371 -852h-111l-342 788l-190 -153l-131 -635h-103z" horiz-adv-x="1122" unicode="K"/><glyph d="M102 0l310 1462h102l-289 -1366h621l-23 -96h-721z" horiz-adv-x="938" unicode="L"/><glyph d="M109 0l309 1462h143l205 -1257h6l733 1257h150l-301 -1462h-101l191 901q79 369 100 447h-6l-780 -1348h-51l-222 1348h-6q-20 -154 -78 -426l-196 -922h-96z" horiz-adv-x="1669" unicode="M"/><glyph d="M102 0l310 1462h80l522 -1294h8q23 176 74 416l188 878h94l-309 -1462h-86l-516 1284h-8q-23 -149 -48 -273t-214 -1011h-95z" horiz-adv-x="1372" unicode="N"/><glyph d="M172 559q0 262 93 477.5t255 331t373 115.5q247 0 378.5 -148.5t131.5 -423.5q0 -255 -94 -481.5t-252 -338t-365 -111.5q-250 0 -385 149t-135 430zM276 573q0 -245 109.5 -373t319.5 -128q169 0 300 98.5t210 300t79 430.5q0 240 -104.5 364t-310.5 124 q-174 0 -308.5 -101t-214.5 -298t-80 -417z" horiz-adv-x="1464" unicode="O"/><glyph d="M102 0l310 1462h315q202 0 310 -92.5t108 -267.5q0 -500 -610 -500h-201l-129 -602h-103zM350 694h191q252 0 373.5 96.5t121.5 305.5q0 274 -329 274h-211z" horiz-adv-x="1145" unicode="P"/><glyph d="M172 559q0 262 93 477.5t255 331t373 115.5q247 0 378.5 -148.5t131.5 -423.5q0 -216 -70 -418t-186.5 -324t-274.5 -167l267 -350h-142l-231 332l-74 -4q-250 0 -385 149t-135 430zM276 573q0 -245 109.5 -373t319.5 -128q169 0 300 98.5t210 300t79 430.5 q0 240 -104.5 364t-310.5 124q-174 0 -308.5 -101t-214.5 -298t-80 -417z" horiz-adv-x="1464" unicode="Q"/><glyph d="M102 0l310 1462h303q430 0 430 -360q0 -182 -103.5 -303t-281.5 -152q201 -591 221 -647h-111l-211 633h-323l-131 -633h-103zM358 725h252q208 0 317 95.5t109 281.5q0 268 -329 268h-211z" horiz-adv-x="1145" unicode="R"/><glyph d="M37 55v109q163 -92 348 -92q188 0 295.5 86.5t107.5 232.5q0 61 -17 104.5t-52.5 78.5t-91 68t-131.5 75q-150 76 -209.5 164t-59.5 206t59 207.5t165 139t237 49.5q99 0 180 -17.5t168 -60.5l-32 -94q-66 40 -151.5 63t-164.5 23q-163 0 -259.5 -82.5t-96.5 -218.5 q0 -103 49 -170t182 -133q154 -79 213.5 -130t89 -113t29.5 -147q0 -126 -65.5 -224.5t-179.5 -148.5t-269 -50q-88 0 -172.5 17t-171.5 58z" horiz-adv-x="1020" unicode="S"/><glyph d="M193 1368l20 94h973l-19 -94h-440l-289 -1368h-102l289 1368h-432z" horiz-adv-x="985" unicode="T"/><glyph d="M176 381q0 83 27 201l186 880h103l-193 -899q-20 -89 -20 -184q0 -309 342 -309q195 0 307.5 96.5t158.5 318.5l207 977h101l-207 -977q-58 -270 -197 -387.5t-375 -117.5q-440 0 -440 401z" horiz-adv-x="1370" unicode="U"/><glyph d="M201 1462h100l117 -950q26 -217 35 -365h4q51 111 124 247l572 1068h117l-799 -1462h-88z" horiz-adv-x="1079" unicode="V"/><glyph d="M238 1462h100l47 -1031l4 -165l-2 -86h6q85 226 170 398l434 884h105l61 -878q19 -266 19 -410h6q30 86 61.5 163t493.5 1125h108q-169 -365 -330.5 -731t-328.5 -731h-78l-78 1075q-11 142 -11 219l1 47h-8q-27 -76 -62 -153.5t-563 -1187.5h-82z" horiz-adv-x="1702" unicode="W"/><glyph d="M-135 0l608 766l-272 696h106l240 -626l483 626h119l-555 -719l285 -743h-107l-254 678l-526 -678h-127z" horiz-adv-x="971" unicode="X"/><glyph d="M193 1462h100l201 -817l544 817h117l-631 -932l-108 -530h-105l119 545z" horiz-adv-x="965" unicode="Y"/><glyph d="M-12 0l22 92l1069 1276h-764l23 94h887l-19 -88l-1069 -1280h799l-23 -94h-925z" unicode="Z"/><glyph d="M-57 -324l376 1786h429l-19 -90h-330l-340 -1605h330l-20 -91h-426z" horiz-adv-x="537" unicode="["/><glyph d="M209 1462h86l242 -1462h-82z" horiz-adv-x="641" unicode="\"/><glyph d="M-176 -324l18 91h330l340 1605h-330l21 90h426l-377 -1786h-428z" horiz-adv-x="537" unicode="]"/><glyph d="M70 569l587 906h91l260 -906h-105l-217 809l-500 -809h-116z" horiz-adv-x="1047" unicode="^"/><glyph d="M-182 -291l18 86h807l-18 -86h-807z" horiz-adv-x="801" unicode="_"/><glyph d="M487 1548v21h115q46 -129 164 -303v-25h-66q-50 52 -114 144.5t-99 162.5z" horiz-adv-x="1135" unicode="`"/><glyph d="M102 354q0 197 75 376t200.5 276.5t277.5 97.5q232 0 279 -219h6l59 202h80l-229 -1087h-82l45 274h-6q-84 -142 -187 -218t-237 -76q-281 0 -281 374zM205 365q0 -152 50 -223.5t151 -71.5q89 0 177.5 62t159 166t107.5 230t37 213q0 79 -26 141.5t-77 99t-127 36.5 q-124 0 -224 -82t-164 -245.5t-64 -325.5z" horiz-adv-x="1133" unicode="a"/><glyph d="M76 0l327 1556h95q-131 -628 -162 -751h6q93 156 199 229.5t231 73.5q281 0 281 -375q0 -203 -76 -380t-201 -273t-276 -96q-113 0 -186 59t-97 166h-6l-55 -209h-80zM268 346q0 -129 64 -202.5t166 -73.5q124 0 224 83t164 245t64 325q0 152 -49 223.5t-151 71.5 q-91 0 -180 -61.5t-160.5 -169.5t-106.5 -235t-35 -206z" horiz-adv-x="1151" unicode="b"/><glyph d="M102 397q0 193 73.5 361.5t198.5 257t290 88.5q134 0 241 -43l-28 -90q-107 47 -218 47q-129 0 -232.5 -77t-162.5 -222t-59 -320q0 -158 73.5 -243.5t208.5 -85.5q71 0 131.5 13t131.5 46v-92q-116 -57 -273 -57q-174 0 -274.5 110.5t-100.5 306.5z" horiz-adv-x="887" unicode="c"/><glyph d="M102 354q0 193 71.5 370t197.5 278.5t284 101.5q230 0 279 -219h4q12 66 143 671h99l-330 -1556h-82l45 274h-6q-173 -294 -424 -294q-281 0 -281 374zM205 365q0 -295 201 -295q89 0 178.5 62.5t160 168t106.5 231t36 209.5q0 126 -61.5 201.5t-168.5 75.5 q-124 0 -224 -83t-164 -242.5t-64 -327.5z" horiz-adv-x="1133" unicode="d"/><glyph d="M102 395q0 181 71 347t195.5 264t274.5 98q114 0 182 -61t68 -166q0 -181 -163.5 -276t-485.5 -95h-33q-6 -44 -6 -98q0 -165 74 -251.5t213 -86.5q132 0 276 73v-94q-140 -69 -299 -69q-173 0 -270 109.5t-97 305.5zM225 594h49q517 0 517 270q0 67 -43.5 110.5 t-116.5 43.5q-131 0 -243.5 -115.5t-162.5 -308.5z" horiz-adv-x="928" unicode="e"/><glyph d="M-233 -383q53 -16 100 -16q88 0 134 53t75 186l246 1166h-205l14 67l205 14l35 160q35 168 116.5 244t227.5 76q73 0 166 -31l-25 -80q-87 27 -147 27q-96 0 -153.5 -53.5t-84.5 -178.5l-35 -164h248l-16 -81h-248l-252 -1190q-33 -161 -104 -234.5t-195 -73.5 q-48 0 -102 19v90z" horiz-adv-x="578" unicode="f"/><glyph d="M-88 -217q0 236 309 334q-78 42 -78 123q0 123 191 202q-71 36 -110.5 105.5t-39.5 157.5q0 111 53.5 204t148 146t206.5 53q69 0 147 -21h361l-17 -79l-243 -11q26 -28 43.5 -84t17.5 -114q0 -109 -54.5 -206.5t-148 -145.5t-213.5 -48q-63 0 -77 9q-80 -33 -124 -73 t-44 -81t31.5 -64.5t113.5 -31.5l121 -11q346 -31 346 -264q0 -112 -65 -197.5t-187 -131.5t-291 -46q-186 0 -291.5 72t-105.5 203zM14 -207q0 -101 81 -150t224 -49q203 0 317 74.5t114 204.5q0 85 -62.5 130.5t-218.5 57.5l-160 15q-157 -45 -226 -114.5t-69 -168.5z M285 711q0 -112 58.5 -170t164.5 -58q88 0 154 37t102.5 114t36.5 169q0 104 -56 161.5t-157 57.5q-93 0 -161 -43t-105 -116t-37 -152z" horiz-adv-x="1040" unicode="g"/><glyph d="M76 0l332 1556h96l-86 -411q-44 -200 -66 -279h6q78 113 186.5 175.5t229.5 62.5q124 0 192 -65t68 -183q0 -70 -24 -182l-148 -674h-98l149 692q21 92 21 156q0 80 -43.5 125t-134.5 45q-112 0 -210.5 -67t-166 -188t-103.5 -286l-102 -477h-98z" horiz-adv-x="1143" unicode="h"/><glyph d="M76 0l231 1087h96l-229 -1087h-98zM350 1366q0 55 22 88t60 33q57 0 57 -72q0 -57 -22 -90t-57 -33q-29 0 -44.5 19.5t-15.5 54.5z" horiz-adv-x="475" unicode="i"/><glyph d="M-279 -381q47 -22 113 -22q82 0 128.5 51.5t72.5 177.5l266 1261h96l-268 -1271q-35 -165 -106.5 -236.5t-188.5 -71.5q-62 0 -113 19v92zM350 1366q0 55 22 88t60 33q57 0 57 -72q0 -57 -22 -90t-57 -33q-29 0 -44.5 19.5t-15.5 54.5z" horiz-adv-x="475" unicode="j"/><glyph d="M76 0l330 1556h96l-166 -780l-70 -299h4l609 610h125l-474 -469l297 -618h-106l-264 559l-205 -188l-80 -371h-96z" horiz-adv-x="944" unicode="k"/><glyph d="M76 0l334 1556h94l-334 -1556h-94z" horiz-adv-x="475" unicode="l"/><glyph d="M72 0l231 1087h80l-33 -210h6q80 113 181.5 170t212.5 57q106 0 163 -67t60 -195h6q77 129 181 195.5t222 66.5q117 0 182.5 -61.5t65.5 -176.5q0 -29 -2.5 -56.5t-19.5 -119.5l-152 -690h-100l149 680q25 120 25 176q0 77 -43 119.5t-119 42.5q-157 0 -277.5 -137.5 t-168.5 -362.5l-109 -518h-102l147 674q25 125 25 162q0 182 -154 182q-106 0 -200 -67.5t-159 -188.5t-100 -287l-100 -475h-98z" horiz-adv-x="1751" unicode="m"/><glyph d="M76 0l231 1087h82l-37 -221h6q164 238 416 238q130 0 195 -64t65 -184q0 -70 -24 -182l-148 -674h-98l149 692q21 92 21 156q0 80 -43.5 125t-134.5 45q-112 0 -210.5 -67t-166 -187.5t-103.5 -286.5l-102 -477h-98z" horiz-adv-x="1143" unicode="n"/><glyph d="M98 403q0 191 73 358t197 257t281 90q180 0 278.5 -108.5t98.5 -299.5q0 -197 -71.5 -368.5t-195.5 -261.5t-286 -90q-184 0 -279.5 109.5t-95.5 313.5zM201 408q0 -342 282 -342q127 0 225.5 77.5t157 228t58.5 330.5q0 154 -73 237t-210 83q-124 0 -223 -78.5 t-158 -225t-59 -310.5z" horiz-adv-x="1124" unicode="o"/><glyph d="M-33 -492l336 1579h82l-45 -274h6q91 153 195.5 224t228.5 71q135 0 208 -92.5t73 -282.5q0 -195 -72 -371t-197.5 -277t-283.5 -101q-230 0 -279 219h-4q-13 -72 -149 -695h-99zM266 346q0 -125 61.5 -200.5t168.5 -75.5q124 0 225 84t164 243.5t63 325.5 q0 295 -200 295q-87 0 -174 -58.5t-161.5 -167.5t-110.5 -237.5t-36 -208.5z" horiz-adv-x="1149" unicode="p"/><glyph d="M98 354q0 201 75.5 379t200.5 274.5t277 96.5q109 0 183.5 -58t99.5 -167h6l55 208h80l-327 -1556h-95l98 470l64 282h-6q-93 -156 -199 -229.5t-231 -73.5q-281 0 -281 374zM201 365q0 -143 45.5 -219t154.5 -76q92 0 182 62.5t160.5 171.5t105 236.5t34.5 200.5 q0 130 -63.5 203.5t-166.5 73.5q-124 0 -224 -83t-164 -245t-64 -325z" horiz-adv-x="1157" unicode="q"/><glyph d="M72 0l231 1087h80l-29 -204h6q73 94 123 135.5t106.5 64.5t123.5 23q69 0 123 -14l-21 -93q-47 15 -113 15q-94 0 -179 -64t-153 -192t-100 -277l-100 -481h-98z" horiz-adv-x="752" unicode="r"/><glyph d="M25 55v107q74 -46 153 -71t148 -25q138 0 211 57.5t73 163.5q0 42 -15.5 74t-50 61.5t-132.5 85.5q-148 80 -200 145.5t-52 159.5q0 128 98.5 209.5t259.5 81.5q75 0 158.5 -17.5t140.5 -46.5l-35 -88q-136 64 -264 64q-116 0 -186 -53t-70 -138q0 -55 17 -88t60.5 -68.5 t119.5 -76.5q114 -63 161.5 -103.5t70 -86.5t22.5 -107q0 -144 -103 -229.5t-280 -85.5q-173 0 -305 75z" horiz-adv-x="827" unicode="s"/><glyph d="M113 1006l14 67l184 17l97 253h55l-55 -256h286l-18 -81h-283l-135 -635q-22 -99 -22 -164q0 -139 126 -139q68 0 152 26v-86q-101 -28 -170 -28q-99 0 -153 54.5t-54 158.5q0 73 29 206l129 607h-182z" horiz-adv-x="616" unicode="t"/><glyph d="M109 227q0 60 22 170l150 690h100l-152 -698q-22 -106 -22 -158q0 -74 47.5 -117.5t138.5 -43.5q110 0 207.5 65.5t164 187t99.5 279.5l105 485h98l-231 -1087h-80l28 205h-6q-167 -221 -403 -221q-131 0 -198.5 62t-67.5 181z" horiz-adv-x="1143" unicode="u"/><glyph d="M104 1087h101l108 -735q26 -165 33 -254h6q51 115 129 256l406 733h102l-600 -1087h-113z" horiz-adv-x="895" unicode="v"/><glyph d="M121 1087h92l13 -821l-3 -157h6q61 134 150 297l373 681h77l64 -681q14 -147 14 -297h6l24 61l101 236l320 681h96l-508 -1087h-108l-60 686q-14 224 -14 266h-6q-34 -92 -144 -290l-356 -662h-117z" horiz-adv-x="1393" unicode="w"/><glyph d="M-72 0l471 559l-245 528h100l207 -462l373 462h120l-448 -534l258 -553h-98l-224 483l-393 -483h-121z" horiz-adv-x="922" unicode="x"/><glyph d="M-217 -379q71 -27 137 -27q80 0 147 49.5t130 164.5t100 184l-174 1095h100l82 -548q51 -351 55 -449h11q43 105 186 367l348 630h103l-713 -1290q-72 -127 -122.5 -178t-114 -81t-146.5 -30q-68 0 -129 21v92z" horiz-adv-x="920" unicode="y"/><glyph d="M-29 0l15 72l776 932h-543l17 83h659l-18 -83l-762 -920h602l-17 -84h-729z" horiz-adv-x="887" unicode="z"/><glyph d="M59 528l21 78q126 0 191 49t89 158l89 393q30 135 106 195.5t215 60.5h29l-17 -86q-86 -2 -129 -20.5t-69.5 -61.5t-44.5 -120l-74 -338q-30 -134 -91.5 -194.5t-164.5 -78.5v-4q68 -18 105.5 -68.5t37.5 -121.5q0 -52 -24 -164l-47 -225q-13 -58 -13 -101 q0 -61 37.5 -89t138.5 -28v-86h-20q-256 0 -256 199q0 45 16 115l56 252q18 90 18 127q0 159 -199 159z" horiz-adv-x="709" unicode="{"/><glyph d="M584 -510v2071h100v-2071h-100z" unicode="|"/><glyph d="M-41 -238q96 2 138 21t68.5 61t43.5 121l74 338q27 126 87.5 189.5t168.5 82.5v5q-75 20 -109.5 72.5t-34.5 117.5q0 55 18 131l54 258q12 61 12 101q0 44 -18 69t-54 36t-116 11l20 86h21q131 0 189.5 -51t58.5 -147q0 -41 -17 -115l-55 -252q-19 -95 -19 -127 q0 -77 49.5 -118.5t149.5 -41.5l-20 -78q-125 0 -191 -48.5t-90 -157.5l-88 -394q-32 -139 -108.5 -197.5t-213.5 -58.5h-18v86z" horiz-adv-x="709" unicode="}"/><glyph d="M127 625v94q108 110 233 110q61 0 115 -13.5t156 -57.5q126 -58 219 -58q54 0 107.5 29t117.5 96v-96q-111 -113 -233 -113q-117 0 -271 72q-62 29 -112.5 43t-108.5 14q-49 0 -108 -30.5t-115 -89.5z" unicode="~"/><glyph d="M4 -375l260 1086h62l-203 -1086h-119zM272 981q0 55 25 89t68 34q67 0 67 -74q0 -56 -25 -88.5t-69 -32.5q-66 0 -66 72z" horiz-adv-x="502" unicode="¡"/><glyph d="M250 600q0 184 63.5 341t178 253t256.5 111l36 178h90l-38 -176q116 -4 217 -43l-29 -90q-107 47 -217 47q-130 0 -233 -76t-162.5 -221t-59.5 -322q0 -164 74.5 -247t208.5 -83q127 0 264 60v-92q-118 -58 -281 -58l-40 -202h-93l45 215q-132 25 -206 132.5t-74 272.5z" unicode="¢"/><glyph d="M-4 0l16 84q93 11 165.5 95.5t107.5 236.5l57 260h-199l17 82h198l76 350q41 187 155 279t290 92q170 0 313 -78l-39 -84l-54 26q-108 50 -231 50q-134 0 -220.5 -74.5t-117.5 -220.5l-73 -340h409l-18 -82h-408l-57 -268q-50 -225 -188 -314h759l-20 -94h-938z" unicode="£"/><glyph d="M207 1077l63 64l127 -129q105 78 230 78q118 0 223 -78l131 129l61 -62l-129 -129q78 -106 78 -227q0 -135 -78 -227l129 -127l-61 -62l-131 127q-104 -76 -223 -76q-126 0 -228 80l-129 -129l-61 62l127 127q-74 98 -74 225q0 118 74 225zM350 723q0 -116 80 -196.5 t197 -80.5t198.5 81t81.5 196q0 75 -36.5 140t-102.5 104t-141 39q-114 0 -195.5 -82t-81.5 -201z" unicode="¤"/><glyph d="M166 289l18 84h299l41 190h-301l17 76h258l-215 823h100l201 -817l544 817h117l-559 -823h266l-16 -76h-315l-39 -190h317l-18 -84h-316l-59 -289h-105l64 289h-299z" unicode="¥"/><glyph d="M578 246h100v-756h-100v756zM578 805v756h100v-756h-100z" unicode="¦"/><glyph d="M102 51v99q47 -27 126 -46.5t153 -19.5q149 0 228 52.5t79 150.5q0 62 -42.5 106t-166.5 96q-155 65 -211.5 130t-56.5 159q0 101 69.5 182t198.5 130q-64 31 -103.5 85.5t-39.5 120.5q0 74 46 134.5t132.5 94.5t202.5 34q163 0 289 -58l-31 -80q-138 54 -264 54 q-124 0 -202.5 -46.5t-78.5 -123.5q0 -59 46 -104.5t183 -106.5q112 -52 158.5 -89.5t71 -85t24.5 -110.5q0 -197 -249 -317q122 -64 122 -197q0 -86 -48 -153.5t-139.5 -105.5t-221.5 -38q-157 0 -275 53zM303 786q0 -57 24.5 -96.5t81 -73t187.5 -81.5q103 49 162 113.5 t59 156.5q0 72 -57.5 126t-200.5 107q-119 -30 -187.5 -97.5t-68.5 -154.5z" horiz-adv-x="995" unicode="§"/><glyph d="M492 1366q0 49 20.5 78t56.5 29q54 0 54 -64q0 -48 -21 -77t-55 -29q-55 0 -55 63zM836 1366q0 49 20.5 78t56.5 29q54 0 54 -64q0 -48 -21 -77t-55 -29q-55 0 -55 63z" horiz-adv-x="1135" unicode="¨"/><glyph d="M147 731q0 200 100 375t275 276t377 101q200 0 375 -100t276 -275t101 -377q0 -197 -97 -370t-272 -277t-383 -104q-207 0 -382 103.5t-272.5 276.5t-97.5 371zM240 731q0 -178 88.5 -329.5t240.5 -240.5t330 -89q174 0 325 85.5t243 239t92 334.5q0 178 -89 330 t-240.5 241t-330.5 89q-182 0 -335 -92t-238.5 -243t-85.5 -325zM537 725q0 207 110 332t297 125q119 0 227 -52l-36 -83q-99 45 -191 45q-142 0 -222.5 -94.5t-80.5 -264.5q0 -186 74.5 -275t220.5 -89q85 0 199 43v-88q-104 -45 -209 -45q-187 0 -288 116t-101 330z" horiz-adv-x="1704" unicode="©"/><glyph d="M170 1032q0 189 90.5 321t226.5 132q55 0 97.5 -29t66.5 -86h6l35 103h66l-137 -650h-72l22 125h-4q-96 -137 -223 -137q-80 0 -127 56.5t-47 164.5zM258 1028q0 -143 111 -143q66 0 133.5 75.5t97.5 184.5q16 51 16 123q0 58 -36 100.5t-93 42.5q-94 0 -161.5 -111.5 t-67.5 -271.5z" horiz-adv-x="643" unicode="ª"/><glyph d="M61 541l2 26l363 365l57 -49l-317 -336l213 -385l-64 -39zM422 541l2 26l362 365l58 -49l-314 -336l209 -385l-63 -39z" horiz-adv-x="860" unicode="«"/><glyph d="M125 672v100h903v-500h-100v400h-803z" unicode="¬"/><glyph d="M77 502l18 90h457l-16 -90h-459z" horiz-adv-x="629" unicode="­"/><glyph d="M150 731q0 207 103.5 382t276.5 272.5t371 97.5q200 0 375 -100t276 -275t101 -377q0 -197 -97 -370t-272 -277t-383 -104q-204 0 -376.5 100.5t-273.5 273t-101 377.5zM242 731q0 -178 88.5 -329.5t240.5 -240.5t330 -89q174 0 325 85.5t243 239t92 334.5q0 178 -89 330 t-240.5 241t-330.5 89q-182 0 -335 -92t-238.5 -243t-85.5 -325zM657 291v880h211q143 0 222 -62t79 -191q0 -80 -39.5 -141t-109.5 -93l237 -393h-120l-211 360h-168v-360h-101zM758 731h112q93 0 144 46.5t51 135.5q0 172 -197 172h-110v-354z" horiz-adv-x="1704" unicode="®"/><glyph d="M348 1556l53 97h654l-54 -97h-653z" horiz-adv-x="655" unicode="¯"/><glyph d="M242 1190q0 120 85 206.5t208 86.5q122 0 207 -86.5t85 -206.5q0 -122 -85.5 -207.5t-206.5 -85.5q-122 0 -207.5 85.5t-85.5 207.5zM315 1190q0 -89 64.5 -153t155.5 -64q92 0 155.5 64t63.5 153q0 90 -64 155.5t-155 65.5q-90 0 -155 -65.5t-65 -155.5z" horiz-adv-x="877" unicode="°"/><glyph d="M127 0v100h903v-100h-903zM127 629v98h401v406h101v-406h401v-98h-401v-400h-101v400h-401z" unicode="±"/><glyph d="M82 586l16 80l297 258q137 118 182.5 190.5t45.5 153.5q0 59 -38.5 97t-105.5 38q-95 0 -194 -76l-41 62q108 90 239 90q73 0 125 -27t78.5 -72t26.5 -100q0 -106 -59 -198.5t-183 -194.5l-266 -223h416l-17 -78h-522z" horiz-adv-x="643" unicode="²"/><glyph d="M109 625v90q46 -28 108 -48t125 -20q99 0 159 52.5t60 142.5q0 162 -196 162h-84l16 79h86q102 0 168.5 49.5t66.5 129.5q0 68 -37.5 102.5t-105.5 34.5q-100 0 -199 -68l-40 64q109 86 251 86q100 0 159 -56.5t59 -148.5q0 -85 -48.5 -148t-154.5 -88v-4 q66 -16 105.5 -68t39.5 -124q0 -77 -39 -141t-109 -99t-161 -35q-59 0 -123.5 15.5t-105.5 40.5z" horiz-adv-x="643" unicode="³"/><glyph d="M580 1241v21q66 51 150.5 142t129.5 165h137v-23q-51 -66 -157.5 -158.5t-192.5 -146.5h-67z" horiz-adv-x="1135" unicode="´"/><glyph d="M-29 -492l338 1579h101l-152 -698q-20 -96 -20 -147q0 -82 48.5 -127t135.5 -45q110 0 207 64.5t162.5 182.5t101.5 285l104 485h99l-234 -1087h-78l29 205h-6q-164 -221 -404 -221q-85 0 -139 32.5t-76 89.5h-6q-18 -132 -51 -284l-63 -314h-97z" horiz-adv-x="1171" unicode="µ"/><glyph d="M215 1042q0 260 109 387t342 127h542v-1816h-100v1722h-227v-1722h-101v819q-64 -18 -145 -18q-216 0 -318 125t-102 376z" horiz-adv-x="1341" unicode="¶"/><glyph d="M207 698q0 56 25 88.5t69 32.5q66 0 66 -72q0 -53 -25 -87.5t-67 -34.5q-68 0 -68 73z" horiz-adv-x="485" unicode="·"/><glyph d="M-174 -406q30 -6 72 -6q198 0 198 115q0 97 -151 107l110 190h80l-78 -137q140 -30 140 -152q0 -94 -75.5 -148.5t-217.5 -54.5q-46 0 -78 7v79z" horiz-adv-x="420" unicode="¸"/><glyph d="M254 1288l258 174h80l-186 -876h-84l118 569q5 21 11.5 50.5t14 60t15.5 59t15 49.5q-34 -31 -60 -51.5t-143 -93.5z" horiz-adv-x="643" unicode="¹"/><glyph d="M190 1059q0 112 41.5 209.5t116 154t170.5 56.5q105 0 165 -64t60 -180q0 -115 -40 -214t-114 -156.5t-175 -57.5q-114 0 -169 67.5t-55 184.5zM270 1067q0 -186 156 -186q73 0 125.5 46.5t81.5 127.5t29 176q0 83 -39 128.5t-115 45.5q-70 0 -124 -46.5t-84 -124.5 t-30 -167z" horiz-adv-x="655" unicode="º"/><glyph d="M33 172l313 336l-209 385l64 39l254 -418l-2 -27l-363 -364zM393 172l314 336l-209 385l63 39l254 -418l-2 -27l-362 -364z" horiz-adv-x="860" unicode="»"/><glyph d="M715 230l21 76l506 577h86l-125 -581h133l-17 -72h-131l-49 -229h-82l49 229h-391zM830 302h291q61 294 79 365.5t29 105.5q-10 -16 -61 -79t-338 -392zM129 0l1086 1462h108l-1087 -1462h-107zM251 1288l258 174h80l-186 -876h-84l118 569q5 21 11.5 50.5t14 60t15.5 59 t15 49.5q-34 -31 -60 -51.5t-143 -93.5z" horiz-adv-x="1481" unicode="¼"/><glyph d="M756 1l16 80l297 258q137 118 182.5 190.5t45.5 153.5q0 59 -38.5 97t-105.5 38q-95 0 -194 -76l-41 62q108 90 239 90q73 0 125 -27t78.5 -72t26.5 -100q0 -106 -59 -198.5t-183 -194.5l-266 -223h416l-17 -78h-522zM173 1288l258 174h80l-186 -876h-84l118 569 q5 21 11.5 50.5t14 60t15.5 59t15 49.5q-34 -31 -60 -51.5t-143 -93.5zM53 0l1086 1462h108l-1087 -1462h-107z" horiz-adv-x="1458" unicode="½"/><glyph d="M776 230l21 76l506 577h86l-125 -581h133l-17 -72h-131l-49 -229h-82l49 229h-391zM891 302h291q61 294 79 365.5t29 105.5q-10 -16 -61 -79t-338 -392zM71 625v90q46 -28 108 -48t125 -20q99 0 159 52.5t60 142.5q0 162 -196 162h-84l16 79h86q102 0 168.5 49.5 t66.5 129.5q0 68 -37.5 102.5t-105.5 34.5q-100 0 -199 -68l-40 64q109 86 251 86q100 0 159 -56.5t59 -148.5q0 -85 -48.5 -148t-154.5 -88v-4q66 -16 105.5 -68t39.5 -124q0 -77 -39 -141t-109 -99t-161 -35q-59 0 -123.5 15.5t-105.5 40.5zM213 0l1086 1462h108 l-1087 -1462h-107z" horiz-adv-x="1458" unicode="¾"/><glyph d="M0 -90q0 133 70 240.5t227 220.5q85 61 133.5 109t73 95t45.5 142h92l-6 -29q-28 -127 -79 -200t-161 -154q-118 -84 -175 -145.5t-86.5 -127.5t-29.5 -141q0 -106 65.5 -168.5t184.5 -62.5q141 0 308 100l38 -86q-85 -49 -170.5 -77.5t-187.5 -28.5q-159 0 -250.5 84.5 t-91.5 228.5zM553 971q0 56 25 89.5t67 33.5q68 0 68 -74q0 -56 -25.5 -88.5t-69.5 -32.5q-65 0 -65 72z" horiz-adv-x="799" unicode="¿"/><glyph d="M-111 0l822 1468h67l201 -1468h-105l-69 520h-512l-287 -520h-117zM344 612h449l-39 291q-31 242 -39 402q-30 -63 -64.5 -130t-306.5 -563zM536 1886v21h115q46 -129 164 -303v-25h-66q-50 52 -114 144.5t-99 162.5z" horiz-adv-x="1059" unicode="À"/><glyph d="M-111 0l822 1468h67l201 -1468h-105l-69 520h-512l-287 -520h-117zM344 612h449l-39 291q-31 242 -39 402q-30 -63 -64.5 -130t-306.5 -563zM668 1579v21q66 51 150.5 142t129.5 165h137v-23q-51 -66 -157.5 -158.5t-192.5 -146.5h-67z" horiz-adv-x="1059" unicode="Á"/><glyph d="M-111 0l822 1468h67l201 -1468h-105l-69 520h-512l-287 -520h-117zM344 612h449l-39 291q-31 242 -39 402q-30 -63 -64.5 -130t-306.5 -563zM493 1579v29q68 56 157.5 148.5t127.5 150.5h64q23 -64 72.5 -152.5t92.5 -146.5v-29h-49q-70 60 -161 207q-55 -57 -125 -114.5 t-125 -92.5h-54z" horiz-adv-x="1059" unicode="Â"/><glyph d="M-111 0l822 1468h67l201 -1468h-105l-69 520h-512l-287 -520h-117zM344 612h449l-39 291q-31 242 -39 402q-30 -63 -64.5 -130t-306.5 -563zM426 1581q19 108 71 166.5t134 58.5q41 0 73.5 -14t117.5 -72q52 -36 94 -36q43 0 71.5 30.5t46.5 100.5h76 q-26 -118 -74.5 -173t-124.5 -55q-40 0 -77.5 19t-75.5 45q-34 23 -64.5 41t-68.5 18q-45 0 -74 -28.5t-51 -100.5h-74z" horiz-adv-x="1059" unicode="Ã"/><glyph d="M-111 0l822 1468h67l201 -1468h-105l-69 520h-512l-287 -520h-117zM344 612h449l-39 291q-31 242 -39 402q-30 -63 -64.5 -130t-306.5 -563zM535 1704q0 49 20.5 78t56.5 29q54 0 54 -64q0 -48 -21 -77t-55 -29q-55 0 -55 63zM879 1704q0 49 20.5 78t56.5 29q54 0 54 -64 q0 -48 -21 -77t-55 -29q-55 0 -55 63z" horiz-adv-x="1059" unicode="Ä"/><glyph d="M-111 0l822 1468h67l201 -1468h-105l-69 520h-512l-287 -520h-117zM344 612h449l-39 291q-31 242 -39 402q-30 -63 -64.5 -130t-306.5 -563zM539 1592q0 88 59.5 144t149.5 56q88 0 142.5 -50t54.5 -142t-57.5 -148.5t-145.5 -56.5q-93 0 -148 52t-55 145zM619 1592 q0 -57 33 -90t90 -33q56 0 90.5 36t34.5 93t-33.5 90t-87.5 33q-60 0 -93.5 -36t-33.5 -93z" horiz-adv-x="1059" unicode="Å"/><glyph d="M-117 0l946 1462h883l-20 -94h-625l-117 -553h590l-20 -94h-588l-135 -627h626l-20 -94h-727l110 522h-444l-328 -522h-131zM408 627h401l156 741h-88z" horiz-adv-x="1640" unicode="Æ"/><glyph d="M170 535q0 266 104.5 488t284.5 341t402 119q177 0 307 -68l-45 -90q-55 30 -124.5 47t-137.5 17q-197 0 -351.5 -104.5t-245 -304.5t-90.5 -441q0 -225 110.5 -346t317.5 -121q140 0 304 51v-94q-156 -49 -316 -49q-252 0 -386 145t-134 410zM381 -406q30 -6 72 -6 q198 0 198 115q0 97 -151 107l110 190h80l-78 -137q140 -30 140 -152q0 -94 -75.5 -148.5t-217.5 -54.5q-46 0 -78 7v79z" horiz-adv-x="1169" unicode="Ç"/><glyph d="M102 0l310 1462h727l-21 -94h-624l-117 -553h590l-21 -94h-588l-135 -627h627l-21 -94h-727zM612 1886v21h115q46 -129 164 -303v-25h-66q-50 52 -114 144.5t-99 162.5z" horiz-adv-x="1067" unicode="È"/><glyph d="M102 0l310 1462h727l-21 -94h-624l-117 -553h590l-21 -94h-588l-135 -627h627l-21 -94h-727zM654 1579v21q66 51 150.5 142t129.5 165h137v-23q-51 -66 -157.5 -158.5t-192.5 -146.5h-67z" horiz-adv-x="1067" unicode="É"/><glyph d="M102 0l310 1462h727l-21 -94h-624l-117 -553h590l-21 -94h-588l-135 -627h627l-21 -94h-727zM522 1579v29q68 56 157.5 148.5t127.5 150.5h64q23 -64 72.5 -152.5t92.5 -146.5v-29h-49q-70 60 -161 207q-55 -57 -125 -114.5t-125 -92.5h-54z" horiz-adv-x="1067" unicode="Ê"/><glyph d="M102 0l310 1462h727l-21 -94h-624l-117 -553h590l-21 -94h-588l-135 -627h627l-21 -94h-727zM558 1704q0 49 20.5 78t56.5 29q54 0 54 -64q0 -48 -21 -77t-55 -29q-55 0 -55 63zM902 1704q0 49 20.5 78t56.5 29q54 0 54 -64q0 -48 -21 -77t-55 -29q-55 0 -55 63z" horiz-adv-x="1067" unicode="Ë"/><glyph d="M102 0l310 1462h98l-309 -1462h-99zM246 1886v21h115q46 -129 164 -303v-25h-66q-50 52 -114 144.5t-99 162.5z" horiz-adv-x="504" unicode="Ì"/><glyph d="M102 0l310 1462h98l-309 -1462h-99zM419 1579v21q66 51 150.5 142t129.5 165h137v-23q-51 -66 -157.5 -158.5t-192.5 -146.5h-67z" horiz-adv-x="504" unicode="Í"/><glyph d="M102 0l310 1462h98l-309 -1462h-99zM224 1579v29q68 56 157.5 148.5t127.5 150.5h64q23 -64 72.5 -152.5t92.5 -146.5v-29h-49q-70 60 -161 207q-55 -57 -125 -114.5t-125 -92.5h-54z" horiz-adv-x="504" unicode="Î"/><glyph d="M102 0l310 1462h98l-309 -1462h-99zM260 1704q0 49 20.5 78t56.5 29q54 0 54 -64q0 -48 -21 -77t-55 -29q-55 0 -55 63zM604 1704q0 49 20.5 78t56.5 29q54 0 54 -64q0 -48 -21 -77t-55 -29q-55 0 -55 63z" horiz-adv-x="504" unicode="Ï"/><glyph d="M90 676l21 96h155l146 690h305q282 0 426.5 -147.5t144.5 -435.5q0 -253 -109.5 -461.5t-300.5 -313t-446 -104.5h-330l144 676h-156zM221 90h209q226 0 394.5 94.5t261 275.5t92.5 412q0 498 -476 498h-206l-129 -598h378l-20 -96h-379z" horiz-adv-x="1352" unicode="Ð"/><glyph d="M102 0l310 1462h80l522 -1294h8q23 176 74 416l188 878h94l-309 -1462h-86l-516 1284h-8q-23 -149 -48 -273t-214 -1011h-95zM577 1581q19 108 71 166.5t134 58.5q41 0 73.5 -14t117.5 -72q52 -36 94 -36q43 0 71.5 30.5t46.5 100.5h76q-26 -118 -74.5 -173t-124.5 -55 q-40 0 -77.5 19t-75.5 45q-34 23 -64.5 41t-68.5 18q-45 0 -74 -28.5t-51 -100.5h-74z" horiz-adv-x="1372" unicode="Ñ"/><glyph d="M172 559q0 262 93 477.5t255 331t373 115.5q247 0 378.5 -148.5t131.5 -423.5q0 -255 -94 -481.5t-252 -338t-365 -111.5q-250 0 -385 149t-135 430zM276 573q0 -245 109.5 -373t319.5 -128q169 0 300 98.5t210 300t79 430.5q0 240 -104.5 364t-310.5 124 q-174 0 -308.5 -101t-214.5 -298t-80 -417zM710 1886v21h115q46 -129 164 -303v-25h-66q-50 52 -114 144.5t-99 162.5z" horiz-adv-x="1464" unicode="Ò"/><glyph d="M172 559q0 262 93 477.5t255 331t373 115.5q247 0 378.5 -148.5t131.5 -423.5q0 -255 -94 -481.5t-252 -338t-365 -111.5q-250 0 -385 149t-135 430zM276 573q0 -245 109.5 -373t319.5 -128q169 0 300 98.5t210 300t79 430.5q0 240 -104.5 364t-310.5 124 q-174 0 -308.5 -101t-214.5 -298t-80 -417zM844 1579v21q66 51 150.5 142t129.5 165h137v-23q-51 -66 -157.5 -158.5t-192.5 -146.5h-67z" horiz-adv-x="1464" unicode="Ó"/><glyph d="M172 559q0 262 93 477.5t255 331t373 115.5q247 0 378.5 -148.5t131.5 -423.5q0 -255 -94 -481.5t-252 -338t-365 -111.5q-250 0 -385 149t-135 430zM276 573q0 -245 109.5 -373t319.5 -128q169 0 300 98.5t210 300t79 430.5q0 240 -104.5 364t-310.5 124 q-174 0 -308.5 -101t-214.5 -298t-80 -417zM657 1579v29q68 56 157.5 148.5t127.5 150.5h64q23 -64 72.5 -152.5t92.5 -146.5v-29h-49q-70 60 -161 207q-55 -57 -125 -114.5t-125 -92.5h-54z" horiz-adv-x="1464" unicode="Ô"/><glyph d="M172 559q0 262 93 477.5t255 331t373 115.5q247 0 378.5 -148.5t131.5 -423.5q0 -255 -94 -481.5t-252 -338t-365 -111.5q-250 0 -385 149t-135 430zM276 573q0 -245 109.5 -373t319.5 -128q169 0 300 98.5t210 300t79 430.5q0 240 -104.5 364t-310.5 124 q-174 0 -308.5 -101t-214.5 -298t-80 -417zM592 1581q19 108 71 166.5t134 58.5q41 0 73.5 -14t117.5 -72q52 -36 94 -36q43 0 71.5 30.5t46.5 100.5h76q-26 -118 -74.5 -173t-124.5 -55q-40 0 -77.5 19t-75.5 45q-34 23 -64.5 41t-68.5 18q-45 0 -74 -28.5t-51 -100.5h-74z" horiz-adv-x="1464" unicode="Õ"/><glyph d="M172 559q0 262 93 477.5t255 331t373 115.5q247 0 378.5 -148.5t131.5 -423.5q0 -255 -94 -481.5t-252 -338t-365 -111.5q-250 0 -385 149t-135 430zM276 573q0 -245 109.5 -373t319.5 -128q169 0 300 98.5t210 300t79 430.5q0 240 -104.5 364t-310.5 124 q-174 0 -308.5 -101t-214.5 -298t-80 -417zM687 1704q0 49 20.5 78t56.5 29q54 0 54 -64q0 -48 -21 -77t-55 -29q-55 0 -55 63zM1031 1704q0 49 20.5 78t56.5 29q54 0 54 -64q0 -48 -21 -77t-55 -29q-55 0 -55 63z" horiz-adv-x="1464" unicode="Ö"/><glyph d="M221 1055l70 69l330 -329l333 329l68 -67l-332 -334l332 -332l-68 -67l-333 329l-330 -327l-68 67l328 330z" unicode="×"/><glyph d="M139 -14l146 172q-113 149 -113 401q0 263 94 479.5t256.5 330.5t370.5 114q219 0 352 -121l133 168l70 -53l-145 -183q45 -51 72.5 -161t27.5 -222q0 -187 -52 -365.5t-144.5 -304.5t-223 -193.5t-291.5 -67.5q-215 0 -348 112l-139 -170zM276 573q0 -105 21.5 -191 t56.5 -138l826 1032q-107 113 -301 113q-134 0 -244 -59.5t-188.5 -170t-124.5 -267.5t-46 -319zM412 172q107 -100 293 -100q170 0 301 100t209.5 296.5t78.5 432.5q0 85 -17.5 172t-43.5 129z" horiz-adv-x="1464" unicode="Ø"/><glyph d="M176 381q0 83 27 201l186 880h103l-193 -899q-20 -89 -20 -184q0 -309 342 -309q195 0 307.5 96.5t158.5 318.5l207 977h101l-207 -977q-58 -270 -197 -387.5t-375 -117.5q-440 0 -440 401zM667 1886v21h115q46 -129 164 -303v-25h-66q-50 52 -114 144.5t-99 162.5z" horiz-adv-x="1370" unicode="Ù"/><glyph d="M176 381q0 83 27 201l186 880h103l-193 -899q-20 -89 -20 -184q0 -309 342 -309q195 0 307.5 96.5t158.5 318.5l207 977h101l-207 -977q-58 -270 -197 -387.5t-375 -117.5q-440 0 -440 401zM838 1579v21q66 51 150.5 142t129.5 165h137v-23q-51 -66 -157.5 -158.5 t-192.5 -146.5h-67z" horiz-adv-x="1370" unicode="Ú"/><glyph d="M176 381q0 83 27 201l186 880h103l-193 -899q-20 -89 -20 -184q0 -309 342 -309q195 0 307.5 96.5t158.5 318.5l207 977h101l-207 -977q-58 -270 -197 -387.5t-375 -117.5q-440 0 -440 401zM634 1579v29q68 56 157.5 148.5t127.5 150.5h64q23 -64 72.5 -152.5 t92.5 -146.5v-29h-49q-70 60 -161 207q-55 -57 -125 -114.5t-125 -92.5h-54z" horiz-adv-x="1370" unicode="Û"/><glyph d="M176 381q0 83 27 201l186 880h103l-193 -899q-20 -89 -20 -184q0 -309 342 -309q195 0 307.5 96.5t158.5 318.5l207 977h101l-207 -977q-58 -270 -197 -387.5t-375 -117.5q-440 0 -440 401zM678 1704q0 49 20.5 78t56.5 29q54 0 54 -64q0 -48 -21 -77t-55 -29 q-55 0 -55 63zM1022 1704q0 49 20.5 78t56.5 29q54 0 54 -64q0 -48 -21 -77t-55 -29q-55 0 -55 63z" horiz-adv-x="1370" unicode="Ü"/><glyph d="M193 1462h100l201 -817l544 817h117l-631 -932l-108 -530h-105l119 545zM563 1579v21q66 51 150.5 142t129.5 165h137v-23q-51 -66 -157.5 -158.5t-192.5 -146.5h-67z" horiz-adv-x="965" unicode="Ý"/><glyph d="M102 0l310 1462h102l-57 -266h213q200 0 308.5 -92.5t108.5 -267.5q0 -247 -153 -373.5t-457 -126.5h-201l-71 -336h-103zM293 428h190q256 0 376 98.5t120 302.5q0 275 -330 275h-211z" horiz-adv-x="1145" unicode="Þ"/><glyph d="M-281 -379q53 -24 115 -24q79 0 123 50.5t66 153.5l305 1409q80 357 405 357q137 0 215 -61.5t78 -174.5q0 -75 -44.5 -140.5t-166.5 -148.5q-107 -76 -141.5 -124.5t-34.5 -106.5q0 -51 34 -88.5t93 -75.5q96 -63 138 -133.5t42 -165.5q0 -170 -106.5 -269t-286.5 -99 q-143 0 -234 65v109q45 -36 112.5 -59t129.5 -23q132 0 208.5 71t76.5 195q0 75 -31.5 129t-109.5 108q-82 58 -119 110.5t-37 121.5q0 57 21 103t60.5 88.5t137.5 113.5q101 70 131.5 116t30.5 101q0 70 -55 110t-150 40q-129 0 -205 -76t-108 -229l-291 -1377 q-33 -152 -103.5 -220.5t-179.5 -68.5q-73 0 -119 23v90z" horiz-adv-x="1094" unicode="ß"/><glyph d="M102 354q0 197 75 376t200.5 276.5t277.5 97.5q232 0 279 -219h6l59 202h80l-229 -1087h-82l45 274h-6q-84 -142 -187 -218t-237 -76q-281 0 -281 374zM205 365q0 -152 50 -223.5t151 -71.5q89 0 177.5 62t159 166t107.5 230t37 213q0 79 -26 141.5t-77 99t-127 36.5 q-124 0 -224 -82t-164 -245.5t-64 -325.5zM530 1548v21h115q46 -129 164 -303v-25h-66q-50 52 -114 144.5t-99 162.5z" horiz-adv-x="1133" unicode="à"/><glyph d="M102 354q0 197 75 376t200.5 276.5t277.5 97.5q232 0 279 -219h6l59 202h80l-229 -1087h-82l45 274h-6q-84 -142 -187 -218t-237 -76q-281 0 -281 374zM205 365q0 -152 50 -223.5t151 -71.5q89 0 177.5 62t159 166t107.5 230t37 213q0 79 -26 141.5t-77 99t-127 36.5 q-124 0 -224 -82t-164 -245.5t-64 -325.5zM586 1241v21q66 51 150.5 142t129.5 165h137v-23q-51 -66 -157.5 -158.5t-192.5 -146.5h-67z" horiz-adv-x="1133" unicode="á"/><glyph d="M102 354q0 197 75 376t200.5 276.5t277.5 97.5q232 0 279 -219h6l59 202h80l-229 -1087h-82l45 274h-6q-84 -142 -187 -218t-237 -76q-281 0 -281 374zM205 365q0 -152 50 -223.5t151 -71.5q89 0 177.5 62t159 166t107.5 230t37 213q0 79 -26 141.5t-77 99t-127 36.5 q-124 0 -224 -82t-164 -245.5t-64 -325.5zM441 1243v29q68 56 157.5 148.5t127.5 150.5h64q23 -64 72.5 -152.5t92.5 -146.5v-29h-49q-70 60 -161 207q-55 -57 -125 -114.5t-125 -92.5h-54z" horiz-adv-x="1133" unicode="â"/><glyph d="M102 354q0 197 75 376t200.5 276.5t277.5 97.5q232 0 279 -219h6l59 202h80l-229 -1087h-82l45 274h-6q-84 -142 -187 -218t-237 -76q-281 0 -281 374zM205 365q0 -152 50 -223.5t151 -71.5q89 0 177.5 62t159 166t107.5 230t37 213q0 79 -26 141.5t-77 99t-127 36.5 q-124 0 -224 -82t-164 -245.5t-64 -325.5zM373 1243q19 108 71 166.5t134 58.5q41 0 73.5 -14t117.5 -72q52 -36 94 -36q43 0 71.5 30.5t46.5 100.5h76q-26 -118 -74.5 -173t-124.5 -55q-40 0 -77.5 19t-75.5 45q-34 23 -64.5 41t-68.5 18q-45 0 -74 -28.5t-51 -100.5h-74z" horiz-adv-x="1133" unicode="ã"/><glyph d="M102 354q0 197 75 376t200.5 276.5t277.5 97.5q232 0 279 -219h6l59 202h80l-229 -1087h-82l45 274h-6q-84 -142 -187 -218t-237 -76q-281 0 -281 374zM205 365q0 -152 50 -223.5t151 -71.5q89 0 177.5 62t159 166t107.5 230t37 213q0 79 -26 141.5t-77 99t-127 36.5 q-124 0 -224 -82t-164 -245.5t-64 -325.5zM491 1366q0 49 20.5 78t56.5 29q54 0 54 -64q0 -48 -21 -77t-55 -29q-55 0 -55 63zM835 1366q0 49 20.5 78t56.5 29q54 0 54 -64q0 -48 -21 -77t-55 -29q-55 0 -55 63z" horiz-adv-x="1133" unicode="ä"/><glyph d="M102 354q0 197 75 376t200.5 276.5t277.5 97.5q232 0 279 -219h6l59 202h80l-229 -1087h-82l45 274h-6q-84 -142 -187 -218t-237 -76q-281 0 -281 374zM205 365q0 -152 50 -223.5t151 -71.5q89 0 177.5 62t159 166t107.5 230t37 213q0 79 -26 141.5t-77 99t-127 36.5 q-124 0 -224 -82t-164 -245.5t-64 -325.5zM521 1440q0 88 59.5 144t149.5 56q88 0 142.5 -50t54.5 -142t-57.5 -148.5t-145.5 -56.5q-93 0 -148 52t-55 145zM601 1440q0 -57 33 -90t90 -33q56 0 90.5 36t34.5 93t-33.5 90t-87.5 33q-60 0 -93.5 -36t-33.5 -93z" horiz-adv-x="1133" unicode="å"/><glyph d="M102 344q0 206 70.5 384.5t192.5 277t274 98.5q106 0 166 -56.5t74 -156.5h10l59 192h66l-35 -186q139 207 350 207q112 0 175 -61.5t63 -172.5q0 -179 -158.5 -271.5t-470.5 -92.5h-39q-8 -51 -8 -96q0 -161 69.5 -250.5t217.5 -89.5q69 0 133.5 21t130.5 52v-94 q-80 -37 -147 -53t-140 -16q-123 0 -211 60t-117 165l-39 -205h-77l41 254h-9q-94 -142 -189 -208t-208 -66q-120 0 -182 94t-62 270zM205 352q0 -150 42.5 -216t121.5 -66q67 0 138.5 42t134 117.5t106 170.5t63.5 199t20 165q0 118 -49 186t-141 68q-123 0 -223 -86 t-156.5 -240t-56.5 -340zM913 594h48q263 0 383 67t120 203q0 71 -38.5 112.5t-108.5 41.5q-119 0 -232 -115.5t-172 -308.5z" horiz-adv-x="1602" unicode="æ"/><glyph d="M102 397q0 193 73.5 361.5t198.5 257t290 88.5q134 0 241 -43l-28 -90q-107 47 -218 47q-129 0 -232.5 -77t-162.5 -222t-59 -320q0 -158 73.5 -243.5t208.5 -85.5q71 0 131.5 13t131.5 46v-92q-116 -57 -273 -57q-174 0 -274.5 110.5t-100.5 306.5zM203 -406 q30 -6 72 -6q198 0 198 115q0 97 -151 107l110 190h80l-78 -137q140 -30 140 -152q0 -94 -75.5 -148.5t-217.5 -54.5q-46 0 -78 7v79z" horiz-adv-x="887" unicode="ç"/><glyph d="M102 395q0 181 71 347t195.5 264t274.5 98q114 0 182 -61t68 -166q0 -181 -163.5 -276t-485.5 -95h-33q-6 -44 -6 -98q0 -165 74 -251.5t213 -86.5q132 0 276 73v-94q-140 -69 -299 -69q-173 0 -270 109.5t-97 305.5zM225 594h49q517 0 517 270q0 67 -43.5 110.5 t-116.5 43.5q-131 0 -243.5 -115.5t-162.5 -308.5zM472 1548v21h115q46 -129 164 -303v-25h-66q-50 52 -114 144.5t-99 162.5z" horiz-adv-x="928" unicode="è"/><glyph d="M102 395q0 181 71 347t195.5 264t274.5 98q114 0 182 -61t68 -166q0 -181 -163.5 -276t-485.5 -95h-33q-6 -44 -6 -98q0 -165 74 -251.5t213 -86.5q132 0 276 73v-94q-140 -69 -299 -69q-173 0 -270 109.5t-97 305.5zM225 594h49q517 0 517 270q0 67 -43.5 110.5 t-116.5 43.5q-131 0 -243.5 -115.5t-162.5 -308.5zM532 1241v21q66 51 150.5 142t129.5 165h137v-23q-51 -66 -157.5 -158.5t-192.5 -146.5h-67z" horiz-adv-x="928" unicode="é"/><glyph d="M102 395q0 181 71 347t195.5 264t274.5 98q114 0 182 -61t68 -166q0 -181 -163.5 -276t-485.5 -95h-33q-6 -44 -6 -98q0 -165 74 -251.5t213 -86.5q132 0 276 73v-94q-140 -69 -299 -69q-173 0 -270 109.5t-97 305.5zM225 594h49q517 0 517 270q0 67 -43.5 110.5 t-116.5 43.5q-131 0 -243.5 -115.5t-162.5 -308.5zM390 1241v29q68 56 157.5 148.5t127.5 150.5h64q23 -64 72.5 -152.5t92.5 -146.5v-29h-49q-70 60 -161 207q-55 -57 -125 -114.5t-125 -92.5h-54z" horiz-adv-x="928" unicode="ê"/><glyph d="M102 395q0 181 71 347t195.5 264t274.5 98q114 0 182 -61t68 -166q0 -181 -163.5 -276t-485.5 -95h-33q-6 -44 -6 -98q0 -165 74 -251.5t213 -86.5q132 0 276 73v-94q-140 -69 -299 -69q-173 0 -270 109.5t-97 305.5zM225 594h49q517 0 517 270q0 67 -43.5 110.5 t-116.5 43.5q-131 0 -243.5 -115.5t-162.5 -308.5zM436 1366q0 49 20.5 78t56.5 29q54 0 54 -64q0 -48 -21 -77t-55 -29q-55 0 -55 63zM780 1366q0 49 20.5 78t56.5 29q54 0 54 -64q0 -48 -21 -77t-55 -29q-55 0 -55 63z" horiz-adv-x="928" unicode="ë"/><glyph d="M76 0l231 1087h96l-229 -1087h-98zM175 1548v21h115q46 -129 164 -303v-25h-66q-50 52 -114 144.5t-99 162.5z" horiz-adv-x="475" unicode="ì"/><glyph d="M76 0l231 1087h96l-229 -1087h-98zM284 1241v21q66 51 150.5 142t129.5 165h137v-23q-51 -66 -157.5 -158.5t-192.5 -146.5h-67z" horiz-adv-x="475" unicode="í"/><glyph d="M76 0l231 1087h96l-229 -1087h-98zM128 1241v29q68 56 157.5 148.5t127.5 150.5h64q23 -64 72.5 -152.5t92.5 -146.5v-29h-49q-70 60 -161 207q-55 -57 -125 -114.5t-125 -92.5h-54z" horiz-adv-x="475" unicode="î"/><glyph d="M76 0l231 1087h96l-229 -1087h-98zM171 1366q0 49 20.5 78t56.5 29q54 0 54 -64q0 -48 -21 -77t-55 -29q-55 0 -55 63zM515 1366q0 49 20.5 78t56.5 29q54 0 54 -64q0 -48 -21 -77t-55 -29q-55 0 -55 63z" horiz-adv-x="475" unicode="ï"/><glyph d="M102 381q0 170 63 301.5t178.5 203.5t262.5 72q107 0 188 -49.5t121 -142.5h5q0 139 -43 289t-115 243l-295 -163l-39 73l285 156q-54 60 -158 139l59 68q32 -26 81 -66t100 -94l266 150l39 -74l-256 -141q87 -116 131.5 -276t44.5 -335q0 -355 -141.5 -555t-399.5 -200 q-177 0 -277 106.5t-100 294.5zM205 389q0 -153 73.5 -236t210.5 -83q118 0 208.5 61t144 186.5t53.5 270.5q0 77 -35 142t-100 101.5t-156 36.5q-124 0 -213.5 -61.5t-137.5 -169.5t-48 -248z" horiz-adv-x="1124" unicode="ð"/><glyph d="M76 0l231 1087h82l-37 -221h6q164 238 416 238q130 0 195 -64t65 -184q0 -70 -24 -182l-148 -674h-98l149 692q21 92 21 156q0 80 -43.5 125t-134.5 45q-112 0 -210.5 -67t-166 -187.5t-103.5 -286.5l-102 -477h-98zM389 1243q19 108 71 166.5t134 58.5q41 0 73.5 -14 t117.5 -72q52 -36 94 -36q43 0 71.5 30.5t46.5 100.5h76q-26 -118 -74.5 -173t-124.5 -55q-40 0 -77.5 19t-75.5 45q-34 23 -64.5 41t-68.5 18q-45 0 -74 -28.5t-51 -100.5h-74z" horiz-adv-x="1143" unicode="ñ"/><glyph d="M98 403q0 191 73 358t197 257t281 90q180 0 278.5 -108.5t98.5 -299.5q0 -197 -71.5 -368.5t-195.5 -261.5t-286 -90q-184 0 -279.5 109.5t-95.5 313.5zM201 408q0 -342 282 -342q127 0 225.5 77.5t157 228t58.5 330.5q0 154 -73 237t-210 83q-124 0 -223 -78.5 t-158 -225t-59 -310.5zM465 1548v21h115q46 -129 164 -303v-25h-66q-50 52 -114 144.5t-99 162.5z" horiz-adv-x="1124" unicode="ò"/><glyph d="M98 403q0 191 73 358t197 257t281 90q180 0 278.5 -108.5t98.5 -299.5q0 -197 -71.5 -368.5t-195.5 -261.5t-286 -90q-184 0 -279.5 109.5t-95.5 313.5zM201 408q0 -342 282 -342q127 0 225.5 77.5t157 228t58.5 330.5q0 154 -73 237t-210 83q-124 0 -223 -78.5 t-158 -225t-59 -310.5zM573 1241v21q66 51 150.5 142t129.5 165h137v-23q-51 -66 -157.5 -158.5t-192.5 -146.5h-67z" horiz-adv-x="1124" unicode="ó"/><glyph d="M98 403q0 191 73 358t197 257t281 90q180 0 278.5 -108.5t98.5 -299.5q0 -197 -71.5 -368.5t-195.5 -261.5t-286 -90q-184 0 -279.5 109.5t-95.5 313.5zM201 408q0 -342 282 -342q127 0 225.5 77.5t157 228t58.5 330.5q0 154 -73 237t-210 83q-124 0 -223 -78.5 t-158 -225t-59 -310.5zM427 1241v29q68 56 157.5 148.5t127.5 150.5h64q23 -64 72.5 -152.5t92.5 -146.5v-29h-49q-70 60 -161 207q-55 -57 -125 -114.5t-125 -92.5h-54z" horiz-adv-x="1124" unicode="ô"/><glyph d="M98 403q0 191 73 358t197 257t281 90q180 0 278.5 -108.5t98.5 -299.5q0 -197 -71.5 -368.5t-195.5 -261.5t-286 -90q-184 0 -279.5 109.5t-95.5 313.5zM201 408q0 -342 282 -342q127 0 225.5 77.5t157 228t58.5 330.5q0 154 -73 237t-210 83q-124 0 -223 -78.5 t-158 -225t-59 -310.5zM354 1243q19 108 71 166.5t134 58.5q41 0 73.5 -14t117.5 -72q52 -36 94 -36q43 0 71.5 30.5t46.5 100.5h76q-26 -118 -74.5 -173t-124.5 -55q-40 0 -77.5 19t-75.5 45q-34 23 -64.5 41t-68.5 18q-45 0 -74 -28.5t-51 -100.5h-74z" horiz-adv-x="1124" unicode="õ"/><glyph d="M98 403q0 191 73 358t197 257t281 90q180 0 278.5 -108.5t98.5 -299.5q0 -197 -71.5 -368.5t-195.5 -261.5t-286 -90q-184 0 -279.5 109.5t-95.5 313.5zM201 408q0 -342 282 -342q127 0 225.5 77.5t157 228t58.5 330.5q0 154 -73 237t-210 83q-124 0 -223 -78.5 t-158 -225t-59 -310.5zM468 1366q0 49 20.5 78t56.5 29q54 0 54 -64q0 -48 -21 -77t-55 -29q-55 0 -55 63zM812 1366q0 49 20.5 78t56.5 29q54 0 54 -64q0 -48 -21 -77t-55 -29q-55 0 -55 63z" horiz-adv-x="1124" unicode="ö"/><glyph d="M168 672v100h903v-100h-903zM522 373q0 106 96 106q48 0 73.5 -27.5t25.5 -78.5q0 -57 -29 -82t-70 -25q-96 0 -96 107zM522 1071q0 107 96 107q46 0 72.5 -27.5t26.5 -79.5q0 -57 -29 -81.5t-70 -24.5q-96 0 -96 106z" unicode="÷"/><glyph d="M45 -18l119 145q-66 106 -66 276q0 191 73 358t197 257t281 90q150 0 250 -82l109 133l65 -53l-117 -143q70 -105 70 -263q0 -197 -71.5 -368.5t-195.5 -261.5t-286 -90q-163 0 -254 83l-110 -135zM201 408q0 -125 32 -197l605 739q-74 72 -197 72q-124 0 -223 -78.5 t-158 -225t-59 -310.5zM281 139q67 -73 202 -73q127 0 225.5 77.5t157 228t58.5 330.5q0 101 -35 179z" horiz-adv-x="1124" unicode="ø"/><glyph d="M109 227q0 60 22 170l150 690h100l-152 -698q-22 -106 -22 -158q0 -74 47.5 -117.5t138.5 -43.5q110 0 207.5 65.5t164 187t99.5 279.5l105 485h98l-231 -1087h-80l28 205h-6q-167 -221 -403 -221q-131 0 -198.5 62t-67.5 181zM495 1548v21h115q46 -129 164 -303v-25h-66 q-50 52 -114 144.5t-99 162.5z" horiz-adv-x="1143" unicode="ù"/><glyph d="M109 227q0 60 22 170l150 690h100l-152 -698q-22 -106 -22 -158q0 -74 47.5 -117.5t138.5 -43.5q110 0 207.5 65.5t164 187t99.5 279.5l105 485h98l-231 -1087h-80l28 205h-6q-167 -221 -403 -221q-131 0 -198.5 62t-67.5 181zM627 1241v21q66 51 150.5 142t129.5 165 h137v-23q-51 -66 -157.5 -158.5t-192.5 -146.5h-67z" horiz-adv-x="1143" unicode="ú"/><glyph d="M109 227q0 60 22 170l150 690h100l-152 -698q-22 -106 -22 -158q0 -74 47.5 -117.5t138.5 -43.5q110 0 207.5 65.5t164 187t99.5 279.5l105 485h98l-231 -1087h-80l28 205h-6q-167 -221 -403 -221q-131 0 -198.5 62t-67.5 181zM443 1241v29q68 56 157.5 148.5 t127.5 150.5h64q23 -64 72.5 -152.5t92.5 -146.5v-29h-49q-70 60 -161 207q-55 -57 -125 -114.5t-125 -92.5h-54z" horiz-adv-x="1143" unicode="û"/><glyph d="M109 227q0 60 22 170l150 690h100l-152 -698q-22 -106 -22 -158q0 -74 47.5 -117.5t138.5 -43.5q110 0 207.5 65.5t164 187t99.5 279.5l105 485h98l-231 -1087h-80l28 205h-6q-167 -221 -403 -221q-131 0 -198.5 62t-67.5 181zM483 1366q0 49 20.5 78t56.5 29 q54 0 54 -64q0 -48 -21 -77t-55 -29q-55 0 -55 63zM827 1366q0 49 20.5 78t56.5 29q54 0 54 -64q0 -48 -21 -77t-55 -29q-55 0 -55 63z" horiz-adv-x="1143" unicode="ü"/><glyph d="M-217 -379q71 -27 137 -27q80 0 147 49.5t130 164.5t100 184l-174 1095h100l82 -548q51 -351 55 -449h11q43 105 186 367l348 630h103l-713 -1290q-72 -127 -122.5 -178t-114 -81t-146.5 -30q-68 0 -129 21v92zM505 1241v21q66 51 150.5 142t129.5 165h137v-23 q-51 -66 -157.5 -158.5t-192.5 -146.5h-67z" horiz-adv-x="920" unicode="ý"/><glyph d="M-33 -492l434 2048h99q-114 -535 -164 -751h6q93 156 199 229.5t231 73.5q133 0 206 -92.5t73 -282.5q0 -195 -72 -371t-197.5 -277t-283.5 -101q-230 0 -279 219h-4q-13 -72 -149 -695h-99zM266 346q0 -125 61.5 -200.5t168.5 -75.5q124 0 225 84t164 243.5t63 325.5 q0 295 -200 295q-86 0 -172.5 -57.5t-162.5 -169.5t-111.5 -238t-35.5 -207z" horiz-adv-x="1163" unicode="þ"/><glyph d="M-217 -379q71 -27 137 -27q80 0 147 49.5t130 164.5t100 184l-174 1095h100l82 -548q51 -351 55 -449h11q43 105 186 367l348 630h103l-713 -1290q-72 -127 -122.5 -178t-114 -81t-146.5 -30q-68 0 -129 21v92zM354 1366q0 49 20.5 78t56.5 29q54 0 54 -64q0 -48 -21 -77 t-55 -29q-55 0 -55 63zM698 1366q0 49 20.5 78t56.5 29q54 0 54 -64q0 -48 -21 -77t-55 -29q-55 0 -55 63z" horiz-adv-x="920" unicode="ÿ"/><glyph d="M-111 0l822 1468h67l201 -1468h-105l-69 520h-512l-287 -520h-117zM344 612h449l-39 291q-31 242 -39 402q-30 -63 -64.5 -130t-306.5 -563zM494 1583l18 88h508l-18 -88h-508z" horiz-adv-x="1059" unicode="Ā"/><glyph d="M102 354q0 197 75 376t200.5 276.5t277.5 97.5q232 0 279 -219h6l59 202h80l-229 -1087h-82l45 274h-6q-84 -142 -187 -218t-237 -76q-281 0 -281 374zM205 365q0 -152 50 -223.5t151 -71.5q89 0 177.5 62t159 166t107.5 230t37 213q0 79 -26 141.5t-77 99t-127 36.5 q-124 0 -224 -82t-164 -245.5t-64 -325.5zM451 1245l18 88h508l-18 -88h-508z" horiz-adv-x="1133" unicode="ā"/><glyph d="M-111 0l822 1468h67l201 -1468h-105l-69 520h-512l-287 -520h-117zM344 612h449l-39 291q-31 242 -39 402q-30 -63 -64.5 -130t-306.5 -563zM529 1778v21l2 20h69q0 -68 36 -103t122 -35q85 0 136.5 30.5t76.5 107.5h72q-29 -120 -101 -177t-192 -57q-105 0 -163 50.5 t-58 142.5z" horiz-adv-x="1059" unicode="Ă"/><glyph d="M102 354q0 197 75 376t200.5 276.5t277.5 97.5q232 0 279 -219h6l59 202h80l-229 -1087h-82l45 274h-6q-84 -142 -187 -218t-237 -76q-281 0 -281 374zM205 365q0 -152 50 -223.5t151 -71.5q89 0 177.5 62t159 166t107.5 230t37 213q0 79 -26 141.5t-77 99t-127 36.5 q-124 0 -224 -82t-164 -245.5t-64 -325.5zM506 1440v21l2 20h69q0 -68 36 -103t122 -35q85 0 136.5 30.5t76.5 107.5h72q-29 -120 -101 -177t-192 -57q-105 0 -163 50.5t-58 142.5z" horiz-adv-x="1133" unicode="ă"/><glyph d="M-111 0l822 1468h67l201 -1468h-105l-69 520h-512l-287 -520h-117zM344 612h449l-39 291q-31 242 -39 402q-30 -63 -64.5 -130t-306.5 -563zM658 -268q0 69 48 132.5t169 135.5h72l-75 -60q-61 -47 -91.5 -95t-30.5 -101q0 -82 88 -82q33 0 76 10v-71q-41 -15 -98 -15 q-75 0 -116.5 38t-41.5 108z" horiz-adv-x="1059" unicode="Ą"/><glyph d="M102 354q0 197 75 376t200.5 276.5t277.5 97.5q232 0 279 -219h6l59 202h80l-229 -1087h-82l45 274h-6q-84 -142 -187 -218t-237 -76q-281 0 -281 374zM205 365q0 -152 50 -223.5t151 -71.5q89 0 177.5 62t159 166t107.5 230t37 213q0 79 -26 141.5t-77 99t-127 36.5 q-124 0 -224 -82t-164 -245.5t-64 -325.5zM551 -268q0 69 48 132.5t169 135.5h72l-75 -60q-61 -47 -91.5 -95t-30.5 -101q0 -82 88 -82q33 0 76 10v-71q-41 -15 -98 -15q-75 0 -116.5 38t-41.5 108z" horiz-adv-x="1133" unicode="ą"/><glyph d="M170 535q0 266 104.5 488t284.5 341t402 119q177 0 307 -68l-45 -90q-55 30 -124.5 47t-137.5 17q-197 0 -351.5 -104.5t-245 -304.5t-90.5 -441q0 -225 110.5 -346t317.5 -121q140 0 304 51v-94q-156 -49 -316 -49q-252 0 -386 145t-134 410zM856 1579v21 q66 51 150.5 142t129.5 165h137v-23q-51 -66 -157.5 -158.5t-192.5 -146.5h-67z" horiz-adv-x="1169" unicode="Ć"/><glyph d="M102 397q0 193 73.5 361.5t198.5 257t290 88.5q134 0 241 -43l-28 -90q-107 47 -218 47q-129 0 -232.5 -77t-162.5 -222t-59 -320q0 -158 73.5 -243.5t208.5 -85.5q71 0 131.5 13t131.5 46v-92q-116 -57 -273 -57q-174 0 -274.5 110.5t-100.5 306.5zM577 1241v21 q66 51 150.5 142t129.5 165h137v-23q-51 -66 -157.5 -158.5t-192.5 -146.5h-67z" horiz-adv-x="887" unicode="ć"/><glyph d="M170 535q0 266 104.5 488t284.5 341t402 119q177 0 307 -68l-45 -90q-55 30 -124.5 47t-137.5 17q-197 0 -351.5 -104.5t-245 -304.5t-90.5 -441q0 -225 110.5 -346t317.5 -121q140 0 304 51v-94q-156 -49 -316 -49q-252 0 -386 145t-134 410zM657 1579v29 q68 56 157.5 148.5t127.5 150.5h64q23 -64 72.5 -152.5t92.5 -146.5v-29h-49q-70 60 -161 207q-55 -57 -125 -114.5t-125 -92.5h-54z" horiz-adv-x="1169" unicode="Ĉ"/><glyph d="M102 397q0 193 73.5 361.5t198.5 257t290 88.5q134 0 241 -43l-28 -90q-107 47 -218 47q-129 0 -232.5 -77t-162.5 -222t-59 -320q0 -158 73.5 -243.5t208.5 -85.5q71 0 131.5 13t131.5 46v-92q-116 -57 -273 -57q-174 0 -274.5 110.5t-100.5 306.5zM394 1241v29 q68 56 157.5 148.5t127.5 150.5h64q23 -64 72.5 -152.5t92.5 -146.5v-29h-49q-70 60 -161 207q-55 -57 -125 -114.5t-125 -92.5h-54z" horiz-adv-x="887" unicode="ĉ"/><glyph d="M170 535q0 266 104.5 488t284.5 341t402 119q177 0 307 -68l-45 -90q-55 30 -124.5 47t-137.5 17q-197 0 -351.5 -104.5t-245 -304.5t-90.5 -441q0 -225 110.5 -346t317.5 -121q140 0 304 51v-94q-156 -49 -316 -49q-252 0 -386 145t-134 410zM848 1704q0 56 21.5 88.5 t60.5 32.5q57 0 57 -72q0 -58 -22.5 -90.5t-57.5 -32.5q-59 0 -59 74z" horiz-adv-x="1169" unicode="Ċ"/><glyph d="M102 397q0 193 73.5 361.5t198.5 257t290 88.5q134 0 241 -43l-28 -90q-107 47 -218 47q-129 0 -232.5 -77t-162.5 -222t-59 -320q0 -158 73.5 -243.5t208.5 -85.5q71 0 131.5 13t131.5 46v-92q-116 -57 -273 -57q-174 0 -274.5 110.5t-100.5 306.5zM643 1366 q0 56 21.5 88.5t60.5 32.5q57 0 57 -72q0 -58 -22.5 -90.5t-57.5 -32.5q-59 0 -59 74z" horiz-adv-x="887" unicode="ċ"/><glyph d="M170 535q0 266 104.5 488t284.5 341t402 119q177 0 307 -68l-45 -90q-55 30 -124.5 47t-137.5 17q-197 0 -351.5 -104.5t-245 -304.5t-90.5 -441q0 -225 110.5 -346t317.5 -121q140 0 304 51v-94q-156 -49 -316 -49q-252 0 -386 145t-134 410zM680 1878v29h49 q72 -61 162 -207q55 57 125 114.5t125 92.5h53v-29q-68 -55 -155.5 -146t-129.5 -153h-63q-29 74 -76.5 158t-89.5 141z" horiz-adv-x="1169" unicode="Č"/><glyph d="M102 397q0 193 73.5 361.5t198.5 257t290 88.5q134 0 241 -43l-28 -90q-107 47 -218 47q-129 0 -232.5 -77t-162.5 -222t-59 -320q0 -158 73.5 -243.5t208.5 -85.5q71 0 131.5 13t131.5 46v-92q-116 -57 -273 -57q-174 0 -274.5 110.5t-100.5 306.5zM449 1540v29h49 q72 -61 162 -207q55 57 125 114.5t125 92.5h53v-29q-68 -55 -155.5 -146t-129.5 -153h-63q-29 74 -76.5 158t-89.5 141z" horiz-adv-x="887" unicode="č"/><glyph d="M102 0l310 1462h305q282 0 426.5 -147.5t144.5 -435.5q0 -253 -109.5 -461.5t-300.5 -313t-446 -104.5h-330zM221 90h209q226 0 394.5 94.5t261 275.5t92.5 412q0 498 -476 498h-206zM608 1878v29h49q72 -61 162 -207q55 57 125 114.5t125 92.5h53v-29 q-68 -55 -155.5 -146t-129.5 -153h-63q-29 74 -76.5 158t-89.5 141z" horiz-adv-x="1350" unicode="Ď"/><glyph d="M102 354q0 193 71.5 370t197.5 278.5t284 101.5q230 0 279 -219h4q12 66 143 671h99l-330 -1556h-82l45 274h-6q-173 -294 -424 -294q-281 0 -281 374zM205 365q0 -295 201 -295q89 0 178.5 62.5t160 168t106.5 231t36 209.5q0 126 -61.5 201.5t-168.5 75.5 q-124 0 -224 -83t-164 -242.5t-64 -327.5zM1257 1229v26q36 46 88 146.5t72 154.5h96v-20q-9 -39 -79.5 -146t-128.5 -161h-48z" horiz-adv-x="1133" unicode="ď"/><glyph d="M90 676l21 96h155l146 690h305q282 0 426.5 -147.5t144.5 -435.5q0 -253 -109.5 -461.5t-300.5 -313t-446 -104.5h-330l144 676h-156zM221 90h209q226 0 394.5 94.5t261 275.5t92.5 412q0 498 -476 498h-206l-129 -598h378l-20 -96h-379z" horiz-adv-x="1352" unicode="Đ"/><glyph d="M102 354q0 193 71.5 370t197.5 278.5t284 101.5q227 0 279 -219h4q7 42 82 387h-404l21 84h401l43 200h99l-43 -200h157l-20 -84h-154l-270 -1272h-82l45 274h-6q-173 -294 -424 -294q-281 0 -281 374zM205 365q0 -295 201 -295q89 0 178.5 62.5t160 168t106.5 231 t36 209.5q0 126 -61.5 201.5t-168.5 75.5q-124 0 -224 -83t-164 -242.5t-64 -327.5z" horiz-adv-x="1163" unicode="đ"/><glyph d="M102 0l310 1462h727l-21 -94h-624l-117 -553h590l-21 -94h-588l-135 -627h627l-21 -94h-727zM525 1583l18 88h508l-18 -88h-508z" horiz-adv-x="1067" unicode="Ē"/><glyph d="M102 395q0 181 71 347t195.5 264t274.5 98q114 0 182 -61t68 -166q0 -181 -163.5 -276t-485.5 -95h-33q-6 -44 -6 -98q0 -165 74 -251.5t213 -86.5q132 0 276 73v-94q-140 -69 -299 -69q-173 0 -270 109.5t-97 305.5zM225 594h49q517 0 517 270q0 67 -43.5 110.5 t-116.5 43.5q-131 0 -243.5 -115.5t-162.5 -308.5zM401 1245l18 88h508l-18 -88h-508z" horiz-adv-x="928" unicode="ē"/><glyph d="M102 0l310 1462h727l-21 -94h-624l-117 -553h590l-21 -94h-588l-135 -627h627l-21 -94h-727zM574 1778v21l2 20h69q0 -68 36 -103t122 -35q85 0 136.5 30.5t76.5 107.5h72q-29 -120 -101 -177t-192 -57q-105 0 -163 50.5t-58 142.5z" horiz-adv-x="1067" unicode="Ĕ"/><glyph d="M102 395q0 181 71 347t195.5 264t274.5 98q114 0 182 -61t68 -166q0 -181 -163.5 -276t-485.5 -95h-33q-6 -44 -6 -98q0 -165 74 -251.5t213 -86.5q132 0 276 73v-94q-140 -69 -299 -69q-173 0 -270 109.5t-97 305.5zM225 594h49q517 0 517 270q0 67 -43.5 110.5 t-116.5 43.5q-131 0 -243.5 -115.5t-162.5 -308.5zM432 1440v21l2 20h69q0 -68 36 -103t122 -35q85 0 136.5 30.5t76.5 107.5h72q-29 -120 -101 -177t-192 -57q-105 0 -163 50.5t-58 142.5z" horiz-adv-x="928" unicode="ĕ"/><glyph d="M102 0l310 1462h727l-21 -94h-624l-117 -553h590l-21 -94h-588l-135 -627h627l-21 -94h-727zM734 1675q0 56 21.5 88.5t60.5 32.5q57 0 57 -72q0 -58 -22.5 -90.5t-57.5 -32.5q-59 0 -59 74z" horiz-adv-x="1067" unicode="Ė"/><glyph d="M102 395q0 181 71 347t195.5 264t274.5 98q114 0 182 -61t68 -166q0 -181 -163.5 -276t-485.5 -95h-33q-6 -44 -6 -98q0 -165 74 -251.5t213 -86.5q132 0 276 73v-94q-140 -69 -299 -69q-173 0 -270 109.5t-97 305.5zM225 594h49q517 0 517 270q0 67 -43.5 110.5 t-116.5 43.5q-131 0 -243.5 -115.5t-162.5 -308.5zM574 1366q0 56 21.5 88.5t60.5 32.5q57 0 57 -72q0 -58 -22.5 -90.5t-57.5 -32.5q-59 0 -59 74z" horiz-adv-x="928" unicode="ė"/><glyph d="M102 0l310 1462h727l-21 -94h-624l-117 -553h590l-21 -94h-588l-135 -627h627l-21 -94h-727zM453 -268q0 69 48 132.5t169 135.5h72l-75 -60q-61 -47 -91.5 -95t-30.5 -101q0 -82 88 -82q33 0 76 10v-71q-41 -15 -98 -15q-75 0 -116.5 38t-41.5 108z" horiz-adv-x="1067" unicode="Ę"/><glyph d="M102 395q0 181 71 347t195.5 264t274.5 98q114 0 182 -61t68 -166q0 -181 -163.5 -276t-485.5 -95h-33q-6 -44 -6 -98q0 -165 74 -251.5t213 -86.5q132 0 276 73v-94q-140 -69 -299 -69q-173 0 -270 109.5t-97 305.5zM225 594h49q517 0 517 270q0 67 -43.5 110.5 t-116.5 43.5q-131 0 -243.5 -115.5t-162.5 -308.5zM410 -237q0 69 48 132.5t169 135.5h72l-75 -60q-61 -47 -91.5 -95t-30.5 -101q0 -82 88 -82q33 0 76 10v-71q-41 -15 -98 -15q-75 0 -116.5 38t-41.5 108z" horiz-adv-x="928" unicode="ę"/><glyph d="M102 0l310 1462h727l-21 -94h-624l-117 -553h590l-21 -94h-588l-135 -627h627l-21 -94h-727zM582 1878v29h49q72 -61 162 -207q55 57 125 114.5t125 92.5h53v-29q-68 -55 -155.5 -146t-129.5 -153h-63q-29 74 -76.5 158t-89.5 141z" horiz-adv-x="1067" unicode="Ě"/><glyph d="M102 395q0 181 71 347t195.5 264t274.5 98q114 0 182 -61t68 -166q0 -181 -163.5 -276t-485.5 -95h-33q-6 -44 -6 -98q0 -165 74 -251.5t213 -86.5q132 0 276 73v-94q-140 -69 -299 -69q-173 0 -270 109.5t-97 305.5zM225 594h49q517 0 517 270q0 67 -43.5 110.5 t-116.5 43.5q-131 0 -243.5 -115.5t-162.5 -308.5zM445 1540v29h49q72 -61 162 -207q55 57 125 114.5t125 92.5h53v-29q-68 -55 -155.5 -146t-129.5 -153h-63q-29 74 -76.5 158t-89.5 141z" horiz-adv-x="928" unicode="ě"/><glyph d="M170 547q0 265 105 483.5t283.5 335.5t395.5 117q113 0 203 -19t184 -59l-38 -94q-110 46 -189.5 62t-167.5 16q-184 0 -339 -107.5t-244 -301.5t-89 -433q0 -229 114.5 -352t326.5 -123q155 0 309 47l117 526h-303l18 90h406l-150 -682q-211 -73 -405 -73 q-257 0 -397 146t-140 421zM663 1579v29q68 56 157.5 148.5t127.5 150.5h64q23 -64 72.5 -152.5t92.5 -146.5v-29h-49q-70 60 -161 207q-55 -57 -125 -114.5t-125 -92.5h-54z" horiz-adv-x="1374" unicode="Ĝ"/><glyph d="M-88 -217q0 236 309 334q-78 42 -78 123q0 123 191 202q-71 36 -110.5 105.5t-39.5 157.5q0 111 53.5 204t148 146t206.5 53q69 0 147 -21h361l-17 -79l-243 -11q26 -28 43.5 -84t17.5 -114q0 -109 -54.5 -206.5t-148 -145.5t-213.5 -48q-63 0 -77 9q-80 -33 -124 -73 t-44 -81t31.5 -64.5t113.5 -31.5l121 -11q346 -31 346 -264q0 -112 -65 -197.5t-187 -131.5t-291 -46q-186 0 -291.5 72t-105.5 203zM14 -207q0 -101 81 -150t224 -49q203 0 317 74.5t114 204.5q0 85 -62.5 130.5t-218.5 57.5l-160 15q-157 -45 -226 -114.5t-69 -168.5z M285 711q0 -112 58.5 -170t164.5 -58q88 0 154 37t102.5 114t36.5 169q0 104 -56 161.5t-157 57.5q-93 0 -161 -43t-105 -116t-37 -152zM384 1241v29q68 56 157.5 148.5t127.5 150.5h64q23 -64 72.5 -152.5t92.5 -146.5v-29h-49q-70 60 -161 207q-55 -57 -125 -114.5 t-125 -92.5h-54z" horiz-adv-x="1040" unicode="ĝ"/><glyph d="M170 547q0 265 105 483.5t283.5 335.5t395.5 117q113 0 203 -19t184 -59l-38 -94q-110 46 -189.5 62t-167.5 16q-184 0 -339 -107.5t-244 -301.5t-89 -433q0 -229 114.5 -352t326.5 -123q155 0 309 47l117 526h-303l18 90h406l-150 -682q-211 -73 -405 -73 q-257 0 -397 146t-140 421zM703 1778v21l2 20h69q0 -68 36 -103t122 -35q85 0 136.5 30.5t76.5 107.5h72q-29 -120 -101 -177t-192 -57q-105 0 -163 50.5t-58 142.5z" horiz-adv-x="1374" unicode="Ğ"/><glyph d="M-88 -217q0 236 309 334q-78 42 -78 123q0 123 191 202q-71 36 -110.5 105.5t-39.5 157.5q0 111 53.5 204t148 146t206.5 53q69 0 147 -21h361l-17 -79l-243 -11q26 -28 43.5 -84t17.5 -114q0 -109 -54.5 -206.5t-148 -145.5t-213.5 -48q-63 0 -77 9q-80 -33 -124 -73 t-44 -81t31.5 -64.5t113.5 -31.5l121 -11q346 -31 346 -264q0 -112 -65 -197.5t-187 -131.5t-291 -46q-186 0 -291.5 72t-105.5 203zM14 -207q0 -101 81 -150t224 -49q203 0 317 74.5t114 204.5q0 85 -62.5 130.5t-218.5 57.5l-160 15q-157 -45 -226 -114.5t-69 -168.5z M285 711q0 -112 58.5 -170t164.5 -58q88 0 154 37t102.5 114t36.5 169q0 104 -56 161.5t-157 57.5q-93 0 -161 -43t-105 -116t-37 -152zM407 1440v21l2 20h69q0 -68 36 -103t122 -35q85 0 136.5 30.5t76.5 107.5h72q-29 -120 -101 -177t-192 -57q-105 0 -163 50.5t-58 142.5 z" horiz-adv-x="1040" unicode="ğ"/><glyph d="M170 547q0 265 105 483.5t283.5 335.5t395.5 117q113 0 203 -19t184 -59l-38 -94q-110 46 -189.5 62t-167.5 16q-184 0 -339 -107.5t-244 -301.5t-89 -433q0 -229 114.5 -352t326.5 -123q155 0 309 47l117 526h-303l18 90h406l-150 -682q-211 -73 -405 -73 q-257 0 -397 146t-140 421zM869 1704q0 56 21.5 88.5t60.5 32.5q57 0 57 -72q0 -58 -22.5 -90.5t-57.5 -32.5q-59 0 -59 74z" horiz-adv-x="1374" unicode="Ġ"/><glyph d="M-88 -217q0 236 309 334q-78 42 -78 123q0 123 191 202q-71 36 -110.5 105.5t-39.5 157.5q0 111 53.5 204t148 146t206.5 53q69 0 147 -21h361l-17 -79l-243 -11q26 -28 43.5 -84t17.5 -114q0 -109 -54.5 -206.5t-148 -145.5t-213.5 -48q-63 0 -77 9q-80 -33 -124 -73 t-44 -81t31.5 -64.5t113.5 -31.5l121 -11q346 -31 346 -264q0 -112 -65 -197.5t-187 -131.5t-291 -46q-186 0 -291.5 72t-105.5 203zM14 -207q0 -101 81 -150t224 -49q203 0 317 74.5t114 204.5q0 85 -62.5 130.5t-218.5 57.5l-160 15q-157 -45 -226 -114.5t-69 -168.5z M285 711q0 -112 58.5 -170t164.5 -58q88 0 154 37t102.5 114t36.5 169q0 104 -56 161.5t-157 57.5q-93 0 -161 -43t-105 -116t-37 -152zM605 1366q0 56 21.5 88.5t60.5 32.5q57 0 57 -72q0 -58 -22.5 -90.5t-57.5 -32.5q-59 0 -59 74z" horiz-adv-x="1040" unicode="ġ"/><glyph d="M170 547q0 265 105 483.5t283.5 335.5t395.5 117q113 0 203 -19t184 -59l-38 -94q-110 46 -189.5 62t-167.5 16q-184 0 -339 -107.5t-244 -301.5t-89 -433q0 -229 114.5 -352t326.5 -123q155 0 309 47l117 526h-303l18 90h406l-150 -682q-211 -73 -405 -73 q-257 0 -397 146t-140 421zM461 -426q34 44 85.5 142t74.5 159h96v-20q-9 -40 -78.5 -145.5t-130.5 -162.5h-47v27z" horiz-adv-x="1374" unicode="Ģ"/><glyph d="M-88 -217q0 236 309 334q-78 42 -78 123q0 123 191 202q-71 36 -110.5 105.5t-39.5 157.5q0 111 53.5 204t148 146t206.5 53q69 0 147 -21h361l-17 -79l-243 -11q26 -28 43.5 -84t17.5 -114q0 -109 -54.5 -206.5t-148 -145.5t-213.5 -48q-63 0 -77 9q-80 -33 -124 -73 t-44 -81t31.5 -64.5t113.5 -31.5l121 -11q346 -31 346 -264q0 -112 -65 -197.5t-187 -131.5t-291 -46q-186 0 -291.5 72t-105.5 203zM14 -207q0 -101 81 -150t224 -49q203 0 317 74.5t114 204.5q0 85 -62.5 130.5t-218.5 57.5l-160 15q-157 -45 -226 -114.5t-69 -168.5z M285 711q0 -112 58.5 -170t164.5 -58q88 0 154 37t102.5 114t36.5 169q0 104 -56 161.5t-157 57.5q-93 0 -161 -43t-105 -116t-37 -152zM579 1241v21q8 38 77 143t132 164h47v-27q-34 -44 -85.5 -142t-74.5 -159h-96z" horiz-adv-x="1040" unicode="ģ"/><glyph d="M102 0l310 1462h102l-139 -649h760l137 649h100l-309 -1462h-100l151 719h-760l-149 -719h-103zM634 1579v29q68 56 157.5 148.5t127.5 150.5h64q23 -64 72.5 -152.5t92.5 -146.5v-29h-49q-70 60 -161 207q-55 -57 -125 -114.5t-125 -92.5h-54z" horiz-adv-x="1366" unicode="Ĥ"/><glyph d="M76 0l332 1556h96l-86 -411q-44 -200 -66 -279h6q78 113 186.5 175.5t229.5 62.5q124 0 192 -65t68 -183q0 -70 -24 -182l-148 -674h-98l149 692q21 92 21 156q0 80 -43.5 125t-134.5 45q-112 0 -210.5 -67t-166 -188t-103.5 -286l-102 -477h-98zM485 1634v29 q68 56 157.5 148.5t127.5 150.5h64q23 -64 72.5 -152.5t92.5 -146.5v-29h-49q-70 60 -161 207q-55 -57 -125 -114.5t-125 -92.5h-54z" horiz-adv-x="1143" unicode="ĥ"/><glyph d="M102 0l232 1094h-193l21 90h190l60 278h102l-59 -278h757l60 278h100l-59 -278h198l-20 -90h-197l-231 -1094h-100l151 719h-760l-149 -719h-103zM375 813h760l59 281h-760z" horiz-adv-x="1366" unicode="Ħ"/><glyph d="M76 0l272 1282h-143l16 78h144l41 196h98l-41 -196h373l-17 -78h-373q-68 -315 -94 -408h10q93 124 191 177t215 53q129 0 197.5 -62t68.5 -182q0 -62 -22 -170l-150 -690h-102l153 698q21 101 21 156q0 81 -48 122.5t-134 41.5q-171 0 -298.5 -141.5t-179.5 -395.5 l-100 -481h-98z" horiz-adv-x="1153" unicode="ħ"/><glyph d="M102 0l310 1462h98l-309 -1462h-99zM154 1581q19 108 71 166.5t134 58.5q41 0 73.5 -14t117.5 -72q52 -36 94 -36q43 0 71.5 30.5t46.5 100.5h76q-26 -118 -74.5 -173t-124.5 -55q-40 0 -77.5 19t-75.5 45q-34 23 -64.5 41t-68.5 18q-45 0 -74 -28.5t-51 -100.5h-74z" horiz-adv-x="504" unicode="Ĩ"/><glyph d="M76 0l231 1087h96l-229 -1087h-98zM66 1243q19 108 71 166.5t134 58.5q41 0 73.5 -14t117.5 -72q52 -36 94 -36q43 0 71.5 30.5t46.5 100.5h76q-26 -118 -74.5 -173t-124.5 -55q-40 0 -77.5 19t-75.5 45q-34 23 -64.5 41t-68.5 18q-45 0 -74 -28.5t-51 -100.5h-74z" horiz-adv-x="475" unicode="ĩ"/><glyph d="M102 0l310 1462h98l-309 -1462h-99zM214 1583l18 88h508l-18 -88h-508z" horiz-adv-x="504" unicode="Ī"/><glyph d="M76 0l231 1087h96l-229 -1087h-98zM132 1245l18 88h508l-18 -88h-508z" horiz-adv-x="475" unicode="ī"/><glyph d="M102 0l310 1462h98l-309 -1462h-99zM255 1778v21l2 20h69q0 -68 36 -103t122 -35q85 0 136.5 30.5t76.5 107.5h72q-29 -120 -101 -177t-192 -57q-105 0 -163 50.5t-58 142.5z" horiz-adv-x="504" unicode="Ĭ"/><glyph d="M76 0l231 1087h96l-229 -1087h-98zM159 1440v21l2 20h69q0 -68 36 -103t122 -35q85 0 136.5 30.5t76.5 107.5h72q-29 -120 -101 -177t-192 -57q-105 0 -163 50.5t-58 142.5z" horiz-adv-x="475" unicode="ĭ"/><glyph d="M102 0l310 1462h98l-309 -1462h-99zM-88 -268q0 69 48 132.5t169 135.5h72l-75 -60q-61 -47 -91.5 -95t-30.5 -101q0 -82 88 -82q33 0 76 10v-71q-41 -15 -98 -15q-75 0 -116.5 38t-41.5 108z" horiz-adv-x="504" unicode="Į"/><glyph d="M76 0l231 1087h96l-229 -1087h-98zM350 1366q0 55 22 88t60 33q57 0 57 -72q0 -57 -22 -90t-57 -33q-29 0 -44.5 19.5t-15.5 54.5zM-115 -268q0 69 48 132.5t169 135.5h72l-75 -60q-61 -47 -91.5 -95t-30.5 -101q0 -82 88 -82q33 0 76 10v-71q-41 -15 -98 -15 q-75 0 -116.5 38t-41.5 108z" horiz-adv-x="475" unicode="į"/><glyph d="M102 0l310 1462h98l-309 -1462h-99zM439 1704q0 56 21.5 88.5t60.5 32.5q57 0 57 -72q0 -58 -22.5 -90.5t-57.5 -32.5q-59 0 -59 74z" horiz-adv-x="504" unicode="İ"/><glyph d="M76 0l231 1087h96l-229 -1087h-98z" horiz-adv-x="475" unicode="ı"/><glyph d="M102 0l310 1462h98l-309 -1462h-99zM180 -336l11 92q57 -20 137 -20q213 0 262 241l309 1485h105l-314 -1491q-35 -170 -125 -250.5t-241 -80.5q-48 0 -88 8t-56 16z" horiz-adv-x="997" unicode="Ĳ"/><glyph d="M73 0l231 1087h96l-229 -1087h-98zM347 1366q0 55 22 88t60 33q57 0 57 -72q0 -57 -22 -90t-57 -33q-29 0 -44.5 19.5t-15.5 54.5zM192 -381q47 -22 113 -22q82 0 128.5 51.5t72.5 177.5l266 1261h96l-268 -1271q-35 -165 -106.5 -236.5t-188.5 -71.5q-62 0 -113 19v92z M821 1366q0 55 22 88t60 33q57 0 57 -72q0 -57 -22 -90t-57 -33q-29 0 -44.5 19.5t-15.5 54.5z" horiz-adv-x="950" unicode="ĳ"/><glyph d="M-324 -336l11 92q57 -20 137 -20q213 0 262 241l309 1485h105l-314 -1491q-35 -170 -125 -250.5t-241 -80.5q-48 0 -88 8t-56 16zM212 1579v29q68 56 157.5 148.5t127.5 150.5h64q23 -64 72.5 -152.5t92.5 -146.5v-29h-49q-70 60 -161 207q-55 -57 -125 -114.5 t-125 -92.5h-54z" horiz-adv-x="477" unicode="Ĵ"/><glyph d="M-279 -381q47 -22 113 -22q82 0 128.5 51.5t72.5 177.5l266 1261h96l-268 -1271q-35 -165 -106.5 -236.5t-188.5 -71.5q-62 0 -113 19v92zM111 1241v29q68 56 157.5 148.5t127.5 150.5h64q23 -64 72.5 -152.5t92.5 -146.5v-29h-49q-70 60 -161 207q-55 -57 -125 -114.5 t-125 -92.5h-54z" horiz-adv-x="475" unicode="ĵ"/><glyph d="M102 0l310 1462h102l-158 -723l133 121l680 602h138l-699 -610l371 -852h-111l-342 788l-190 -153l-131 -635h-103zM297 -426q34 44 85.5 142t74.5 159h96v-20q-9 -40 -78.5 -145.5t-130.5 -162.5h-47v27z" horiz-adv-x="1122" unicode="Ķ"/><glyph d="M76 0l330 1556h96l-166 -780l-70 -299h4l609 610h125l-474 -469l297 -618h-106l-264 559l-205 -188l-80 -371h-96zM217 -426q34 44 85.5 142t74.5 159h96v-20q-9 -40 -78.5 -145.5t-130.5 -162.5h-47v27z" horiz-adv-x="944" unicode="ķ"/><glyph d="M76 0l229 1087h96l-65 -311l-70 -299h4l609 610h125l-474 -469l297 -618h-106l-264 559l-205 -188l-80 -371h-96z" horiz-adv-x="944" unicode="ĸ"/><glyph d="M102 0l310 1462h102l-289 -1366h621l-23 -96h-721zM415 1579v21q66 51 150.5 142t129.5 165h137v-23q-51 -66 -157.5 -158.5t-192.5 -146.5h-67z" horiz-adv-x="938" unicode="Ĺ"/><glyph d="M76 0l334 1556h94l-334 -1556h-94zM403 1636v21q66 51 150.5 142t129.5 165h137v-23q-51 -66 -157.5 -158.5t-192.5 -146.5h-67z" horiz-adv-x="475" unicode="ĺ"/><glyph d="M102 0l310 1462h102l-289 -1366h621l-23 -96h-721zM291 -426q34 44 85.5 142t74.5 159h96v-20q-9 -40 -78.5 -145.5t-130.5 -162.5h-47v27z" horiz-adv-x="938" unicode="Ļ"/><glyph d="M76 0l334 1556h94l-334 -1556h-94zM-81 -426q34 44 85.5 142t74.5 159h96v-20q-9 -40 -78.5 -145.5t-130.5 -162.5h-47v27z" horiz-adv-x="475" unicode="ļ"/><glyph d="M102 0l310 1462h102l-289 -1366h621l-23 -96h-721zM765 1136v26q36 46 88 146.5t72 154.5h96v-20q-9 -39 -79.5 -146t-128.5 -161h-48z" horiz-adv-x="938" unicode="Ľ"/><glyph d="M76 0l334 1556h94l-334 -1556h-94zM595 1229v26q36 46 88 146.5t72 154.5h96v-20q-9 -39 -79.5 -146t-128.5 -161h-48z" horiz-adv-x="475" unicode="ľ"/><glyph d="M102 0l310 1462h102l-289 -1366h621l-23 -96h-721zM684 718q0 56 21.5 88.5t60.5 32.5q57 0 57 -72q0 -58 -22.5 -90.5t-57.5 -32.5q-59 0 -59 74z" horiz-adv-x="938" unicode="Ŀ"/><glyph d="M69 0l334 1556h94l-334 -1556h-94zM443 761q0 56 21.5 88.5t60.5 32.5q57 0 57 -72q0 -58 -22.5 -90.5t-57.5 -32.5q-59 0 -59 74z" horiz-adv-x="418" unicode="ŀ"/><glyph d="M39 522l199 119l174 821h102l-160 -755l285 170l43 -76l-354 -213l-103 -492h621l-23 -96h-723l113 524l-135 -80z" horiz-adv-x="922" unicode="Ł"/><glyph d="M10 637l230 135l170 784h94l-154 -720l182 104l41 -72l-247 -141l-156 -727h-94l141 664l-170 -99z" horiz-adv-x="430" unicode="ł"/><glyph d="M102 0l310 1462h80l522 -1294h8q23 176 74 416l188 878h94l-309 -1462h-86l-516 1284h-8q-23 -149 -48 -273t-214 -1011h-95zM844 1579v21q66 51 150.5 142t129.5 165h137v-23q-51 -66 -157.5 -158.5t-192.5 -146.5h-67z" horiz-adv-x="1372" unicode="Ń"/><glyph d="M76 0l231 1087h82l-37 -221h6q164 238 416 238q130 0 195 -64t65 -184q0 -70 -24 -182l-148 -674h-98l149 692q21 92 21 156q0 80 -43.5 125t-134.5 45q-112 0 -210.5 -67t-166 -187.5t-103.5 -286.5l-102 -477h-98zM666 1241v21q66 51 150.5 142t129.5 165h137v-23 q-51 -66 -157.5 -158.5t-192.5 -146.5h-67z" horiz-adv-x="1143" unicode="ń"/><glyph d="M102 0l310 1462h80l522 -1294h8q23 176 74 416l188 878h94l-309 -1462h-86l-516 1284h-8q-23 -149 -48 -273t-214 -1011h-95zM387 -426q34 44 85.5 142t74.5 159h96v-20q-9 -40 -78.5 -145.5t-130.5 -162.5h-47v27z" horiz-adv-x="1372" unicode="Ņ"/><glyph d="M76 0l231 1087h82l-37 -221h6q164 238 416 238q130 0 195 -64t65 -184q0 -70 -24 -182l-148 -674h-98l149 692q21 92 21 156q0 80 -43.5 125t-134.5 45q-112 0 -210.5 -67t-166 -187.5t-103.5 -286.5l-102 -477h-98zM258 -426q34 44 85.5 142t74.5 159h96v-20 q-9 -40 -78.5 -145.5t-130.5 -162.5h-47v27z" horiz-adv-x="1143" unicode="ņ"/><glyph d="M102 0l310 1462h80l522 -1294h8q23 176 74 416l188 878h94l-309 -1462h-86l-516 1284h-8q-23 -149 -48 -273t-214 -1011h-95zM711 1878v29h49q72 -61 162 -207q55 57 125 114.5t125 92.5h53v-29q-68 -55 -155.5 -146t-129.5 -153h-63q-29 74 -76.5 158t-89.5 141z" horiz-adv-x="1372" unicode="Ň"/><glyph d="M76 0l231 1087h82l-37 -221h6q164 238 416 238q130 0 195 -64t65 -184q0 -70 -24 -182l-148 -674h-98l149 692q21 92 21 156q0 80 -43.5 125t-134.5 45q-112 0 -210.5 -67t-166 -187.5t-103.5 -286.5l-102 -477h-98zM507 1540v29h49q72 -61 162 -207q55 57 125 114.5 t125 92.5h53v-29q-68 -55 -155.5 -146t-129.5 -153h-63q-29 74 -76.5 158t-89.5 141z" horiz-adv-x="1143" unicode="ň"/><glyph d="M135 961q66 106 129.5 242.5t103.5 258.5h113l4 -22q-43 -105 -117.5 -235.5t-158.5 -243.5h-74zM201 0l231 1087h82l-37 -221h6q164 238 416 238q130 0 195 -64t65 -184q0 -70 -24 -182l-148 -674h-98l149 692q21 92 21 156q0 80 -43.5 125t-134.5 45q-112 0 -210.5 -67 t-166 -187.5t-103.5 -286.5l-102 -477h-98z" horiz-adv-x="1282" unicode="ŉ"/><glyph d="M102 0l310 1462h80l522 -1294h8q23 176 74 416l188 878h94l-305 -1444q-41 -196 -130.5 -287t-246.5 -91q-37 0 -83 8.5t-60 15.5l10 92q58 -20 137 -20q113 0 175.5 65t97.5 222l-506 1261h-8q-23 -149 -48 -273t-214 -1011h-95z" horiz-adv-x="1380" unicode="Ŋ"/><glyph d="M76 0l231 1087h82l-37 -221h6q164 238 416 238q130 0 195 -64t65 -184q0 -70 -24 -182l-187 -858q-35 -165 -106.5 -236.5t-188.5 -71.5q-65 0 -112 19v92q47 -22 112 -22q82 0 127.5 51t71.5 178l186 866q21 92 21 156q0 80 -43.5 125t-134.5 45q-112 0 -210.5 -67 t-166 -187.5t-103.5 -286.5l-102 -477h-98z" horiz-adv-x="1153" unicode="ŋ"/><glyph d="M172 559q0 262 93 477.5t255 331t373 115.5q247 0 378.5 -148.5t131.5 -423.5q0 -255 -94 -481.5t-252 -338t-365 -111.5q-250 0 -385 149t-135 430zM276 573q0 -245 109.5 -373t319.5 -128q169 0 300 98.5t210 300t79 430.5q0 240 -104.5 364t-310.5 124 q-174 0 -308.5 -101t-214.5 -298t-80 -417zM647 1583l18 88h508l-18 -88h-508z" horiz-adv-x="1464" unicode="Ō"/><glyph d="M98 403q0 191 73 358t197 257t281 90q180 0 278.5 -108.5t98.5 -299.5q0 -197 -71.5 -368.5t-195.5 -261.5t-286 -90q-184 0 -279.5 109.5t-95.5 313.5zM201 408q0 -342 282 -342q127 0 225.5 77.5t157 228t58.5 330.5q0 154 -73 237t-210 83q-124 0 -223 -78.5 t-158 -225t-59 -310.5zM418 1245l18 88h508l-18 -88h-508z" horiz-adv-x="1124" unicode="ō"/><glyph d="M172 559q0 262 93 477.5t255 331t373 115.5q247 0 378.5 -148.5t131.5 -423.5q0 -255 -94 -481.5t-252 -338t-365 -111.5q-250 0 -385 149t-135 430zM276 573q0 -245 109.5 -373t319.5 -128q169 0 300 98.5t210 300t79 430.5q0 240 -104.5 364t-310.5 124 q-174 0 -308.5 -101t-214.5 -298t-80 -417zM670 1778v21l2 20h69q0 -68 36 -103t122 -35q85 0 136.5 30.5t76.5 107.5h72q-29 -120 -101 -177t-192 -57q-105 0 -163 50.5t-58 142.5z" horiz-adv-x="1464" unicode="Ŏ"/><glyph d="M98 403q0 191 73 358t197 257t281 90q180 0 278.5 -108.5t98.5 -299.5q0 -197 -71.5 -368.5t-195.5 -261.5t-286 -90q-184 0 -279.5 109.5t-95.5 313.5zM201 408q0 -342 282 -342q127 0 225.5 77.5t157 228t58.5 330.5q0 154 -73 237t-210 83q-124 0 -223 -78.5 t-158 -225t-59 -310.5zM444 1440v21l2 20h69q0 -68 36 -103t122 -35q85 0 136.5 30.5t76.5 107.5h72q-29 -120 -101 -177t-192 -57q-105 0 -163 50.5t-58 142.5z" horiz-adv-x="1124" unicode="ŏ"/><glyph d="M172 559q0 262 93 477.5t255 331t373 115.5q247 0 378.5 -148.5t131.5 -423.5q0 -255 -94 -481.5t-252 -338t-365 -111.5q-250 0 -385 149t-135 430zM276 573q0 -245 109.5 -373t319.5 -128q169 0 300 98.5t210 300t79 430.5q0 240 -104.5 364t-310.5 124 q-174 0 -308.5 -101t-214.5 -298t-80 -417zM756 1579v29q48 49 112 132t115 167h103v-23q-59 -80 -145 -170.5t-146 -134.5h-39zM1069 1579v29q41 44 107.5 129.5t119.5 169.5h103v-23q-61 -82 -146.5 -171.5t-146.5 -133.5h-37z" horiz-adv-x="1464" unicode="Ő"/><glyph d="M98 403q0 191 73 358t197 257t281 90q180 0 278.5 -108.5t98.5 -299.5q0 -197 -71.5 -368.5t-195.5 -261.5t-286 -90q-184 0 -279.5 109.5t-95.5 313.5zM201 408q0 -342 282 -342q127 0 225.5 77.5t157 228t58.5 330.5q0 154 -73 237t-210 83q-124 0 -223 -78.5 t-158 -225t-59 -310.5zM484 1241v29q48 49 112 132t115 167h103v-23q-59 -80 -145 -170.5t-146 -134.5h-39zM797 1241v29q41 44 107.5 129.5t119.5 169.5h103v-23q-61 -82 -146.5 -171.5t-146.5 -133.5h-37z" horiz-adv-x="1124" unicode="ő"/><glyph d="M172 559q0 263 96 482t262 330.5t381 111.5q130 0 240 -21h688l-20 -94h-625l-117 -553h590l-20 -94h-588l-135 -627h626l-20 -94h-666q-25 -6 -77.5 -13t-94.5 -7q-251 0 -385.5 149.5t-134.5 429.5zM276 573q0 -245 109 -373t320 -128q68 0 116 12l271 1290 q-110 15 -189 15q-182 0 -321.5 -98.5t-222.5 -293.5t-83 -424z" horiz-adv-x="1767" unicode="Œ"/><glyph d="M98 403q0 191 73 358t197 257t281 90q141 0 237 -74.5t126 -212.5q70 132 182.5 207.5t241.5 75.5q114 0 182 -61t68 -166q0 -181 -163.5 -276t-486.5 -95h-32q-7 -38 -7 -98q0 -165 74 -251.5t213 -86.5q133 0 277 73v-94q-140 -69 -299 -69q-135 0 -228 69t-125 201 q-65 -127 -179 -198.5t-257 -71.5q-184 0 -279.5 109.5t-95.5 313.5zM201 408q0 -342 282 -342q127 0 225.5 77.5t157 228t58.5 330.5q0 154 -73 237t-210 83q-124 0 -223 -78.5t-158 -225t-59 -310.5zM1018 594h49q516 0 516 270q0 70 -44.5 112t-115.5 42 q-131 0 -243 -115t-162 -309z" horiz-adv-x="1720" unicode="œ"/><glyph d="M102 0l310 1462h303q430 0 430 -360q0 -182 -103.5 -303t-281.5 -152q201 -591 221 -647h-111l-211 633h-323l-131 -633h-103zM358 725h252q208 0 317 95.5t109 281.5q0 268 -329 268h-211zM725 1579v21q66 51 150.5 142t129.5 165h137v-23q-51 -66 -157.5 -158.5 t-192.5 -146.5h-67z" horiz-adv-x="1145" unicode="Ŕ"/><glyph d="M72 0l231 1087h80l-29 -204h6q73 94 123 135.5t106.5 64.5t123.5 23q69 0 123 -14l-21 -93q-47 15 -113 15q-94 0 -179 -64t-153 -192t-100 -277l-100 -481h-98zM466 1241v21q66 51 150.5 142t129.5 165h137v-23q-51 -66 -157.5 -158.5t-192.5 -146.5h-67z" horiz-adv-x="752" unicode="ŕ"/><glyph d="M102 0l310 1462h303q430 0 430 -360q0 -182 -103.5 -303t-281.5 -152q201 -591 221 -647h-111l-211 633h-323l-131 -633h-103zM358 725h252q208 0 317 95.5t109 281.5q0 268 -329 268h-211zM315 -426q34 44 85.5 142t74.5 159h96v-20q-9 -40 -78.5 -145.5t-130.5 -162.5 h-47v27z" horiz-adv-x="1145" unicode="Ŗ"/><glyph d="M72 0l231 1087h80l-29 -204h6q73 94 123 135.5t106.5 64.5t123.5 23q69 0 123 -14l-21 -93q-47 15 -113 15q-94 0 -179 -64t-153 -192t-100 -277l-100 -481h-98zM-87 -426q34 44 85.5 142t74.5 159h96v-20q-9 -40 -78.5 -145.5t-130.5 -162.5h-47v27z" horiz-adv-x="752" unicode="ŗ"/><glyph d="M102 0l310 1462h303q430 0 430 -360q0 -182 -103.5 -303t-281.5 -152q201 -591 221 -647h-111l-211 633h-323l-131 -633h-103zM358 725h252q208 0 317 95.5t109 281.5q0 268 -329 268h-211zM565 1878v29h49q72 -61 162 -207q55 57 125 114.5t125 92.5h53v-29 q-68 -55 -155.5 -146t-129.5 -153h-63q-29 74 -76.5 158t-89.5 141z" horiz-adv-x="1145" unicode="Ř"/><glyph d="M72 0l231 1087h80l-29 -204h6q73 94 123 135.5t106.5 64.5t123.5 23q69 0 123 -14l-21 -93q-47 15 -113 15q-94 0 -179 -64t-153 -192t-100 -277l-100 -481h-98zM378 1540v29h49q72 -61 162 -207q55 57 125 114.5t125 92.5h53v-29q-68 -55 -155.5 -146t-129.5 -153h-63 q-29 74 -76.5 158t-89.5 141z" horiz-adv-x="752" unicode="ř"/><glyph d="M37 55v109q163 -92 348 -92q188 0 295.5 86.5t107.5 232.5q0 61 -17 104.5t-52.5 78.5t-91 68t-131.5 75q-150 76 -209.5 164t-59.5 206t59 207.5t165 139t237 49.5q99 0 180 -17.5t168 -60.5l-32 -94q-66 40 -151.5 63t-164.5 23q-163 0 -259.5 -82.5t-96.5 -218.5 q0 -103 49 -170t182 -133q154 -79 213.5 -130t89 -113t29.5 -147q0 -126 -65.5 -224.5t-179.5 -148.5t-269 -50q-88 0 -172.5 17t-171.5 58zM643 1579v21q66 51 150.5 142t129.5 165h137v-23q-51 -66 -157.5 -158.5t-192.5 -146.5h-67z" horiz-adv-x="1020" unicode="Ś"/><glyph d="M25 55v107q74 -46 153 -71t148 -25q138 0 211 57.5t73 163.5q0 42 -15.5 74t-50 61.5t-132.5 85.5q-148 80 -200 145.5t-52 159.5q0 128 98.5 209.5t259.5 81.5q75 0 158.5 -17.5t140.5 -46.5l-35 -88q-136 64 -264 64q-116 0 -186 -53t-70 -138q0 -55 17 -88t60.5 -68.5 t119.5 -76.5q114 -63 161.5 -103.5t70 -86.5t22.5 -107q0 -144 -103 -229.5t-280 -85.5q-173 0 -305 75zM452 1241v21q66 51 150.5 142t129.5 165h137v-23q-51 -66 -157.5 -158.5t-192.5 -146.5h-67z" horiz-adv-x="827" unicode="ś"/><glyph d="M37 55v109q163 -92 348 -92q188 0 295.5 86.5t107.5 232.5q0 61 -17 104.5t-52.5 78.5t-91 68t-131.5 75q-150 76 -209.5 164t-59.5 206t59 207.5t165 139t237 49.5q99 0 180 -17.5t168 -60.5l-32 -94q-66 40 -151.5 63t-164.5 23q-163 0 -259.5 -82.5t-96.5 -218.5 q0 -103 49 -170t182 -133q154 -79 213.5 -130t89 -113t29.5 -147q0 -126 -65.5 -224.5t-179.5 -148.5t-269 -50q-88 0 -172.5 17t-171.5 58zM444 1579v29q68 56 157.5 148.5t127.5 150.5h64q23 -64 72.5 -152.5t92.5 -146.5v-29h-49q-70 60 -161 207q-55 -57 -125 -114.5 t-125 -92.5h-54z" horiz-adv-x="1020" unicode="Ŝ"/><glyph d="M25 55v107q74 -46 153 -71t148 -25q138 0 211 57.5t73 163.5q0 42 -15.5 74t-50 61.5t-132.5 85.5q-148 80 -200 145.5t-52 159.5q0 128 98.5 209.5t259.5 81.5q75 0 158.5 -17.5t140.5 -46.5l-35 -88q-136 64 -264 64q-116 0 -186 -53t-70 -138q0 -55 17 -88t60.5 -68.5 t119.5 -76.5q114 -63 161.5 -103.5t70 -86.5t22.5 -107q0 -144 -103 -229.5t-280 -85.5q-173 0 -305 75zM283 1241v29q68 56 157.5 148.5t127.5 150.5h64q23 -64 72.5 -152.5t92.5 -146.5v-29h-49q-70 60 -161 207q-55 -57 -125 -114.5t-125 -92.5h-54z" horiz-adv-x="827" unicode="ŝ"/><glyph d="M37 55v109q163 -92 348 -92q188 0 295.5 86.5t107.5 232.5q0 61 -17 104.5t-52.5 78.5t-91 68t-131.5 75q-150 76 -209.5 164t-59.5 206t59 207.5t165 139t237 49.5q99 0 180 -17.5t168 -60.5l-32 -94q-66 40 -151.5 63t-164.5 23q-163 0 -259.5 -82.5t-96.5 -218.5 q0 -103 49 -170t182 -133q154 -79 213.5 -130t89 -113t29.5 -147q0 -126 -65.5 -224.5t-179.5 -148.5t-269 -50q-88 0 -172.5 17t-171.5 58zM137 -406q30 -6 72 -6q198 0 198 115q0 97 -151 107l110 190h80l-78 -137q140 -30 140 -152q0 -94 -75.5 -148.5t-217.5 -54.5 q-46 0 -78 7v79z" horiz-adv-x="1020" unicode="Ş"/><glyph d="M25 55v107q74 -46 153 -71t148 -25q138 0 211 57.5t73 163.5q0 42 -15.5 74t-50 61.5t-132.5 85.5q-148 80 -200 145.5t-52 159.5q0 128 98.5 209.5t259.5 81.5q75 0 158.5 -17.5t140.5 -46.5l-35 -88q-136 64 -264 64q-116 0 -186 -53t-70 -138q0 -55 17 -88t60.5 -68.5 t119.5 -76.5q114 -63 161.5 -103.5t70 -86.5t22.5 -107q0 -144 -103 -229.5t-280 -85.5q-173 0 -305 75zM78 -406q30 -6 72 -6q198 0 198 115q0 97 -151 107l110 190h80l-78 -137q140 -30 140 -152q0 -94 -75.5 -148.5t-217.5 -54.5q-46 0 -78 7v79z" horiz-adv-x="827" unicode="ş"/><glyph d="M37 55v109q163 -92 348 -92q188 0 295.5 86.5t107.5 232.5q0 61 -17 104.5t-52.5 78.5t-91 68t-131.5 75q-150 76 -209.5 164t-59.5 206t59 207.5t165 139t237 49.5q99 0 180 -17.5t168 -60.5l-32 -94q-66 40 -151.5 63t-164.5 23q-163 0 -259.5 -82.5t-96.5 -218.5 q0 -103 49 -170t182 -133q154 -79 213.5 -130t89 -113t29.5 -147q0 -126 -65.5 -224.5t-179.5 -148.5t-269 -50q-88 0 -172.5 17t-171.5 58zM468 1878v29h49q72 -61 162 -207q55 57 125 114.5t125 92.5h53v-29q-68 -55 -155.5 -146t-129.5 -153h-63q-29 74 -76.5 158 t-89.5 141z" horiz-adv-x="1020" unicode="Š"/><glyph d="M25 55v107q74 -46 153 -71t148 -25q138 0 211 57.5t73 163.5q0 42 -15.5 74t-50 61.5t-132.5 85.5q-148 80 -200 145.5t-52 159.5q0 128 98.5 209.5t259.5 81.5q75 0 158.5 -17.5t140.5 -46.5l-35 -88q-136 64 -264 64q-116 0 -186 -53t-70 -138q0 -55 17 -88t60.5 -68.5 t119.5 -76.5q114 -63 161.5 -103.5t70 -86.5t22.5 -107q0 -144 -103 -229.5t-280 -85.5q-173 0 -305 75zM331 1540v29h49q72 -61 162 -207q55 57 125 114.5t125 92.5h53v-29q-68 -55 -155.5 -146t-129.5 -153h-63q-29 74 -76.5 158t-89.5 141z" horiz-adv-x="827" unicode="š"/><glyph d="M193 1368l20 94h973l-19 -94h-440l-289 -1368h-102l289 1368h-432zM121 -406q30 -6 72 -6q198 0 198 115q0 97 -151 107l110 190h80l-78 -137q140 -30 140 -152q0 -94 -75.5 -148.5t-217.5 -54.5q-46 0 -78 7v79z" horiz-adv-x="985" unicode="Ţ"/><glyph d="M113 1006l14 67l184 17l97 253h55l-55 -256h286l-18 -81h-283l-135 -635q-22 -99 -22 -164q0 -139 126 -139q68 0 152 26v-86q-101 -28 -170 -28q-99 0 -153 54.5t-54 158.5q0 73 29 206l129 607h-182zM55 -406q30 -6 72 -6q198 0 198 115q0 97 -151 107l110 190h80 l-78 -137q140 -30 140 -152q0 -94 -75.5 -148.5t-217.5 -54.5q-46 0 -78 7v79z" horiz-adv-x="616" unicode="ţ"/><glyph d="M193 1368l20 94h973l-19 -94h-440l-289 -1368h-102l289 1368h-432zM516 1878v29h49q72 -61 162 -207q55 57 125 114.5t125 92.5h53v-29q-68 -55 -155.5 -146t-129.5 -153h-63q-29 74 -76.5 158t-89.5 141z" horiz-adv-x="985" unicode="Ť"/><glyph d="M113 1006l14 67l184 17l97 253h55l-55 -256h286l-18 -81h-283l-135 -635q-22 -99 -22 -164q0 -139 126 -139q68 0 152 26v-86q-101 -28 -170 -28q-99 0 -153 54.5t-54 158.5q0 73 29 206l129 607h-182zM636 1228v26q36 46 88 146.5t72 154.5h96v-20q-9 -39 -79.5 -146 t-128.5 -161h-48z" horiz-adv-x="616" unicode="ť"/><glyph d="M164 721l18 82h324l119 565h-432l20 94h973l-19 -94h-440l-121 -565h332l-18 -82h-330l-152 -721h-102l151 721h-323z" horiz-adv-x="985" unicode="Ŧ"/><glyph d="M45 598l18 82h162l70 326h-182l14 67l184 17l97 253h55l-55 -256h286l-18 -81h-283l-69 -326h249l-18 -82h-250l-47 -227q-22 -99 -22 -170q0 -57 30.5 -95t95.5 -38q68 0 152 26v-86q-25 -10 -78.5 -19t-87.5 -9q-98 0 -154.5 59t-56.5 154q0 79 25 188l45 217h-162z" horiz-adv-x="573" unicode="ŧ"/><glyph d="M176 381q0 83 27 201l186 880h103l-193 -899q-20 -89 -20 -184q0 -309 342 -309q195 0 307.5 96.5t158.5 318.5l207 977h101l-207 -977q-58 -270 -197 -387.5t-375 -117.5q-440 0 -440 401zM584 1581q19 108 71 166.5t134 58.5q41 0 73.5 -14t117.5 -72q52 -36 94 -36 q43 0 71.5 30.5t46.5 100.5h76q-26 -118 -74.5 -173t-124.5 -55q-40 0 -77.5 19t-75.5 45q-34 23 -64.5 41t-68.5 18q-45 0 -74 -28.5t-51 -100.5h-74z" horiz-adv-x="1370" unicode="Ũ"/><glyph d="M109 227q0 60 22 170l150 690h100l-152 -698q-22 -106 -22 -158q0 -74 47.5 -117.5t138.5 -43.5q110 0 207.5 65.5t164 187t99.5 279.5l105 485h98l-231 -1087h-80l28 205h-6q-167 -221 -403 -221q-131 0 -198.5 62t-67.5 181zM385 1243q19 108 71 166.5t134 58.5 q41 0 73.5 -14t117.5 -72q52 -36 94 -36q43 0 71.5 30.5t46.5 100.5h76q-26 -118 -74.5 -173t-124.5 -55q-40 0 -77.5 19t-75.5 45q-34 23 -64.5 41t-68.5 18q-45 0 -74 -28.5t-51 -100.5h-74z" horiz-adv-x="1143" unicode="ũ"/><glyph d="M176 381q0 83 27 201l186 880h103l-193 -899q-20 -89 -20 -184q0 -309 342 -309q195 0 307.5 96.5t158.5 318.5l207 977h101l-207 -977q-58 -270 -197 -387.5t-375 -117.5q-440 0 -440 401zM645 1583l18 88h508l-18 -88h-508z" horiz-adv-x="1370" unicode="Ū"/><glyph d="M109 227q0 60 22 170l150 690h100l-152 -698q-22 -106 -22 -158q0 -74 47.5 -117.5t138.5 -43.5q110 0 207.5 65.5t164 187t99.5 279.5l105 485h98l-231 -1087h-80l28 205h-6q-167 -221 -403 -221q-131 0 -198.5 62t-67.5 181zM453 1245l18 88h508l-18 -88h-508z" horiz-adv-x="1143" unicode="ū"/><glyph d="M176 381q0 83 27 201l186 880h103l-193 -899q-20 -89 -20 -184q0 -309 342 -309q195 0 307.5 96.5t158.5 318.5l207 977h101l-207 -977q-58 -270 -197 -387.5t-375 -117.5q-440 0 -440 401zM674 1778v21l2 20h69q0 -68 36 -103t122 -35q85 0 136.5 30.5t76.5 107.5h72 q-29 -120 -101 -177t-192 -57q-105 0 -163 50.5t-58 142.5z" horiz-adv-x="1370" unicode="Ŭ"/><glyph d="M109 227q0 60 22 170l150 690h100l-152 -698q-22 -106 -22 -158q0 -74 47.5 -117.5t138.5 -43.5q110 0 207.5 65.5t164 187t99.5 279.5l105 485h98l-231 -1087h-80l28 205h-6q-167 -221 -403 -221q-131 0 -198.5 62t-67.5 181zM470 1440v21l2 20h69q0 -68 36 -103 t122 -35q85 0 136.5 30.5t76.5 107.5h72q-29 -120 -101 -177t-192 -57q-105 0 -163 50.5t-58 142.5z" horiz-adv-x="1143" unicode="ŭ"/><glyph d="M176 381q0 83 27 201l186 880h103l-193 -899q-20 -89 -20 -184q0 -309 342 -309q195 0 307.5 96.5t158.5 318.5l207 977h101l-207 -977q-58 -270 -197 -387.5t-375 -117.5q-440 0 -440 401zM704 1778q0 88 59.5 144t149.5 56q88 0 142.5 -50t54.5 -142t-57.5 -148.5 t-145.5 -56.5q-93 0 -148 52t-55 145zM784 1778q0 -57 33 -90t90 -33q56 0 90.5 36t34.5 93t-33.5 90t-87.5 33q-60 0 -93.5 -36t-33.5 -93z" horiz-adv-x="1370" unicode="Ů"/><glyph d="M109 227q0 60 22 170l150 690h100l-152 -698q-22 -106 -22 -158q0 -74 47.5 -117.5t138.5 -43.5q110 0 207.5 65.5t164 187t99.5 279.5l105 485h98l-231 -1087h-80l28 205h-6q-167 -221 -403 -221q-131 0 -198.5 62t-67.5 181zM523 1440q0 88 59.5 144t149.5 56 q88 0 142.5 -50t54.5 -142t-57.5 -148.5t-145.5 -56.5q-93 0 -148 52t-55 145zM603 1440q0 -57 33 -90t90 -33q56 0 90.5 36t34.5 93t-33.5 90t-87.5 33q-60 0 -93.5 -36t-33.5 -93z" horiz-adv-x="1143" unicode="ů"/><glyph d="M176 381q0 83 27 201l186 880h103l-193 -899q-20 -89 -20 -184q0 -309 342 -309q195 0 307.5 96.5t158.5 318.5l207 977h101l-207 -977q-58 -270 -197 -387.5t-375 -117.5q-440 0 -440 401zM713 1579v29q48 49 112 132t115 167h103v-23q-59 -80 -145 -170.5t-146 -134.5 h-39zM1026 1579v29q41 44 107.5 129.5t119.5 169.5h103v-23q-61 -82 -146.5 -171.5t-146.5 -133.5h-37z" horiz-adv-x="1370" unicode="Ű"/><glyph d="M109 227q0 60 22 170l150 690h100l-152 -698q-22 -106 -22 -158q0 -74 47.5 -117.5t138.5 -43.5q110 0 207.5 65.5t164 187t99.5 279.5l105 485h98l-231 -1087h-80l28 205h-6q-167 -221 -403 -221q-131 0 -198.5 62t-67.5 181zM479 1241v29q48 49 112 132t115 167h103 v-23q-59 -80 -145 -170.5t-146 -134.5h-39zM792 1241v29q41 44 107.5 129.5t119.5 169.5h103v-23q-61 -82 -146.5 -171.5t-146.5 -133.5h-37z" horiz-adv-x="1143" unicode="ű"/><glyph d="M176 381q0 83 27 201l186 880h103l-193 -899q-20 -89 -20 -184q0 -309 342 -309q195 0 307.5 96.5t158.5 318.5l207 977h101l-207 -977q-58 -270 -197 -387.5t-375 -117.5q-440 0 -440 401zM496 -268q0 69 48 132.5t169 135.5h72l-75 -60q-61 -47 -91.5 -95t-30.5 -101 q0 -82 88 -82q33 0 76 10v-71q-41 -15 -98 -15q-75 0 -116.5 38t-41.5 108z" horiz-adv-x="1370" unicode="Ų"/><glyph d="M109 227q0 60 22 170l150 690h100l-152 -698q-22 -106 -22 -158q0 -74 47.5 -117.5t138.5 -43.5q110 0 207.5 65.5t164 187t99.5 279.5l105 485h98l-231 -1087h-80l28 205h-6q-167 -221 -403 -221q-131 0 -198.5 62t-67.5 181zM539 -268q0 69 48 132.5t169 135.5h72 l-75 -60q-61 -47 -91.5 -95t-30.5 -101q0 -82 88 -82q33 0 76 10v-71q-41 -15 -98 -15q-75 0 -116.5 38t-41.5 108z" horiz-adv-x="1143" unicode="ų"/><glyph d="M238 1462h100l47 -1031l4 -165l-2 -86h6q85 226 170 398l434 884h105l61 -878q19 -266 19 -410h6q30 86 61.5 163t493.5 1125h108q-169 -365 -330.5 -731t-328.5 -731h-78l-78 1075q-11 142 -11 219l1 47h-8q-27 -76 -62 -153.5t-563 -1187.5h-82zM796 1579v29 q68 56 157.5 148.5t127.5 150.5h64q23 -64 72.5 -152.5t92.5 -146.5v-29h-49q-70 60 -161 207q-55 -57 -125 -114.5t-125 -92.5h-54z" horiz-adv-x="1702" unicode="Ŵ"/><glyph d="M121 1087h92l13 -821l-3 -157h6q61 134 150 297l373 681h77l64 -681q14 -147 14 -297h6l24 61l101 236l320 681h96l-508 -1087h-108l-60 686q-14 224 -14 266h-6q-34 -92 -144 -290l-356 -662h-117zM557 1241v29q68 56 157.5 148.5t127.5 150.5h64q23 -64 72.5 -152.5 t92.5 -146.5v-29h-49q-70 60 -161 207q-55 -57 -125 -114.5t-125 -92.5h-54z" horiz-adv-x="1393" unicode="ŵ"/><glyph d="M193 1462h100l201 -817l544 817h117l-631 -932l-108 -530h-105l119 545zM414 1579v29q68 56 157.5 148.5t127.5 150.5h64q23 -64 72.5 -152.5t92.5 -146.5v-29h-49q-70 60 -161 207q-55 -57 -125 -114.5t-125 -92.5h-54z" horiz-adv-x="965" unicode="Ŷ"/><glyph d="M-217 -379q71 -27 137 -27q80 0 147 49.5t130 164.5t100 184l-174 1095h100l82 -548q51 -351 55 -449h11q43 105 186 367l348 630h103l-713 -1290q-72 -127 -122.5 -178t-114 -81t-146.5 -30q-68 0 -129 21v92zM316 1241v29q68 56 157.5 148.5t127.5 150.5h64 q23 -64 72.5 -152.5t92.5 -146.5v-29h-49q-70 60 -161 207q-55 -57 -125 -114.5t-125 -92.5h-54z" horiz-adv-x="920" unicode="ŷ"/><glyph d="M193 1462h100l201 -817l544 817h117l-631 -932l-108 -530h-105l119 545zM454 1704q0 49 20.5 78t56.5 29q54 0 54 -64q0 -48 -21 -77t-55 -29q-55 0 -55 63zM798 1704q0 49 20.5 78t56.5 29q54 0 54 -64q0 -48 -21 -77t-55 -29q-55 0 -55 63z" horiz-adv-x="965" unicode="Ÿ"/><glyph d="M-12 0l22 92l1069 1276h-764l23 94h887l-19 -88l-1069 -1280h799l-23 -94h-925zM668 1579v21q66 51 150.5 142t129.5 165h137v-23q-51 -66 -157.5 -158.5t-192.5 -146.5h-67z" unicode="Ź"/><glyph d="M-29 0l15 72l776 932h-543l17 83h659l-18 -83l-762 -920h602l-17 -84h-729zM489 1241v21q66 51 150.5 142t129.5 165h137v-23q-51 -66 -157.5 -158.5t-192.5 -146.5h-67z" horiz-adv-x="887" unicode="ź"/><glyph d="M-12 0l22 92l1069 1276h-764l23 94h887l-19 -88l-1069 -1280h799l-23 -94h-925zM719 1704q0 56 21.5 88.5t60.5 32.5q57 0 57 -72q0 -58 -22.5 -90.5t-57.5 -32.5q-59 0 -59 74z" unicode="Ż"/><glyph d="M-29 0l15 72l776 932h-543l17 83h659l-18 -83l-762 -920h602l-17 -84h-729zM527 1366q0 56 21.5 88.5t60.5 32.5q57 0 57 -72q0 -58 -22.5 -90.5t-57.5 -32.5q-59 0 -59 74z" horiz-adv-x="887" unicode="ż"/><glyph d="M-12 0l22 92l1069 1276h-764l23 94h887l-19 -88l-1069 -1280h799l-23 -94h-925zM567 1878v29h49q72 -61 162 -207q55 57 125 114.5t125 92.5h53v-29q-68 -55 -155.5 -146t-129.5 -153h-63q-29 74 -76.5 158t-89.5 141z" unicode="Ž"/><glyph d="M-29 0l15 72l776 932h-543l17 83h659l-18 -83l-762 -920h602l-17 -84h-729zM382 1540v29h49q72 -61 162 -207q55 57 125 114.5t125 92.5h53v-29q-68 -55 -155.5 -146t-129.5 -153h-63q-29 74 -76.5 158t-89.5 141z" horiz-adv-x="887" unicode="ž"/><glyph d="M-287 -383q53 -16 101 -16q88 0 134 53t75 186l294 1407q38 169 118.5 244.5t226.5 75.5q40 0 90 -11t75 -20l-24 -80q-87 27 -148 27q-95 0 -152 -53t-85 -179l-303 -1435q-33 -161 -104 -234.5t-195 -73.5q-49 0 -103 19v90z" horiz-adv-x="473" unicode="ſ"/><glyph d="M2 -383q53 -16 100 -16q88 0 134 53t75 186l215 1018h-204l14 68l205 14l47 223q35 168 116.5 244t227.5 76q73 0 166 -31l-25 -80q-87 27 -147 27q-96 0 -153.5 -53.5t-84.5 -178.5l-47 -227h248l-17 -82h-247l-222 -1042q-34 -165 -105.5 -236.5t-193.5 -71.5 q-48 0 -102 19v90z" unicode="ƒ"/><glyph d="M172 559q0 262 93 477.5t255 331t373 115.5q143 0 252.5 -54t175.5 -163q102 41 154 109t71 181h105l12 -18q-53 -246 -305 -344q45 -121 45 -283q0 -255 -94 -481.5t-252 -338t-365 -111.5q-250 0 -385 149t-135 430zM276 573q0 -245 109.5 -373t319.5 -128 q169 0 300 98.5t210 300t79 430.5q0 240 -104.5 364t-310.5 124q-174 0 -308.5 -101t-214.5 -298t-80 -417z" horiz-adv-x="1464" unicode="Ơ"/><glyph d="M98 403q0 191 73 358t197 257t281 90q203 0 301 -137q87 35 135.5 101.5t67.5 178.5h104l13 -18q-52 -240 -281 -334q37 -87 37 -199q0 -197 -71.5 -368.5t-195.5 -261.5t-286 -90q-184 0 -279.5 109.5t-95.5 313.5zM201 408q0 -342 282 -342q127 0 225.5 77.5t157 228 t58.5 330.5q0 154 -73 237t-210 83q-124 0 -223 -78.5t-158 -225t-59 -310.5z" horiz-adv-x="1155" unicode="ơ"/><glyph d="M176 381q0 83 27 201l186 880h103l-193 -899q-20 -89 -20 -184q0 -309 342 -309q195 0 307.5 96.5t158.5 318.5l207 977h101l-45 -211q101 29 160.5 99t82.5 206h105l12 -18q-35 -160 -129.5 -248.5t-249.5 -126.5l-143 -678q-58 -270 -197 -387.5t-375 -117.5 q-440 0 -440 401z" horiz-adv-x="1489" unicode="Ư"/><glyph d="M109 227q0 60 22 170l150 690h100l-152 -698q-22 -106 -22 -158q0 -74 47.5 -117.5t138.5 -43.5q110 0 207.5 65.5t164 187t99.5 279.5l105 485h98l-31 -145q103 28 163 99t83 212h104l13 -18q-35 -162 -130 -254t-251 -127l-182 -854h-80l28 205h-6q-167 -221 -403 -221 q-131 0 -198.5 62t-67.5 181z" horiz-adv-x="1284" unicode="ư"/><glyph d="M-279 -381q47 -22 113 -22q82 0 128.5 51.5t72.5 177.5l266 1261h96l-268 -1271q-35 -165 -106.5 -236.5t-188.5 -71.5q-62 0 -113 19v92zM181 1540v29h49q72 -61 162 -207q55 57 125 114.5t125 92.5h53v-29q-68 -55 -155.5 -146t-129.5 -153h-63q-29 74 -76.5 158 t-89.5 141z" horiz-adv-x="475" unicode="ǰ"/><glyph d="M-111 0l713 1276q-37 26 -58.5 68.5t-21.5 95.5q0 90 59 146t148 56q93 0 146 -52.5t53 -143.5q0 -63 -31 -114t-90 -72l172 -1260h-105l-69 520h-512l-287 -520h-117zM344 612h449l-39 291q-22 155 -35 342h-33q-28 -55 -58 -112.5t-284 -520.5zM602 1444 q0 -59 32.5 -92t92.5 -33q56 0 90.5 33t34.5 92q0 57 -32.5 91t-92.5 34q-54 0 -89.5 -34t-35.5 -91zM676 1708v21q66 51 150.5 142t129.5 165h138v-23q-58 -71 -161 -161t-190 -144h-67z" horiz-adv-x="1059" unicode="Ǻ"/><glyph d="M102 354q0 197 75 376t200.5 276.5t277.5 97.5q232 0 279 -219h6l59 202h80l-229 -1087h-82l45 274h-6q-84 -142 -187 -218t-237 -76q-281 0 -281 374zM205 365q0 -152 50 -223.5t151 -71.5q89 0 177.5 62t159 166t107.5 230t37 213q0 79 -26 141.5t-77 99t-127 36.5 q-124 0 -224 -82t-164 -245.5t-64 -325.5zM525 1390q0 88 59.5 144t149.5 56q88 0 142.5 -50t54.5 -142t-57.5 -148.5t-145.5 -56.5q-93 0 -148 52t-55 145zM605 1390q0 -57 33 -90t90 -33q56 0 90.5 36t34.5 93t-33.5 90t-87.5 33q-60 0 -93.5 -36t-33.5 -93zM656 1663v21 q66 51 150.5 142t129.5 165h137v-23q-51 -66 -157.5 -158.5t-192.5 -146.5h-67z" horiz-adv-x="1133" unicode="ǻ"/><glyph d="M-117 0l946 1462h883l-20 -94h-625l-117 -553h590l-20 -94h-588l-135 -627h626l-20 -94h-727l110 522h-444l-328 -522h-131zM408 627h401l156 741h-88zM1100 1579v21q66 51 150.5 142t129.5 165h137v-23q-51 -66 -157.5 -158.5t-192.5 -146.5h-67z" horiz-adv-x="1640" unicode="Ǽ"/><glyph d="M102 344q0 206 70.5 384.5t192.5 277t274 98.5q106 0 166 -56.5t74 -156.5h10l59 192h66l-35 -186q139 207 350 207q112 0 175 -61.5t63 -172.5q0 -179 -158.5 -271.5t-470.5 -92.5h-39q-8 -51 -8 -96q0 -161 69.5 -250.5t217.5 -89.5q69 0 133.5 21t130.5 52v-94 q-80 -37 -147 -53t-140 -16q-123 0 -211 60t-117 165l-39 -205h-77l41 254h-9q-94 -142 -189 -208t-208 -66q-120 0 -182 94t-62 270zM205 352q0 -150 42.5 -216t121.5 -66q67 0 138.5 42t134 117.5t106 170.5t63.5 199t20 165q0 118 -49 186t-141 68q-123 0 -223 -86 t-156.5 -240t-56.5 -340zM913 594h48q263 0 383 67t120 203q0 71 -38.5 112.5t-108.5 41.5q-119 0 -232 -115.5t-172 -308.5zM969 1241v21q66 51 150.5 142t129.5 165h137v-23q-51 -66 -157.5 -158.5t-192.5 -146.5h-67z" horiz-adv-x="1602" unicode="ǽ"/><glyph d="M139 -14l146 172q-113 149 -113 401q0 263 94 479.5t256.5 330.5t370.5 114q219 0 352 -121l133 168l70 -53l-145 -183q45 -51 72.5 -161t27.5 -222q0 -187 -52 -365.5t-144.5 -304.5t-223 -193.5t-291.5 -67.5q-215 0 -348 112l-139 -170zM276 573q0 -105 21.5 -191 t56.5 -138l826 1032q-107 113 -301 113q-134 0 -244 -59.5t-188.5 -170t-124.5 -267.5t-46 -319zM412 172q107 -100 293 -100q170 0 301 100t209.5 296.5t78.5 432.5q0 85 -17.5 172t-43.5 129zM813 1579v21q66 51 150.5 142t129.5 165h137v-23q-51 -66 -157.5 -158.5 t-192.5 -146.5h-67z" horiz-adv-x="1464" unicode="Ǿ"/><glyph d="M45 -18l119 145q-66 106 -66 276q0 191 73 358t197 257t281 90q150 0 250 -82l109 133l65 -53l-117 -143q70 -105 70 -263q0 -197 -71.5 -368.5t-195.5 -261.5t-286 -90q-163 0 -254 83l-110 -135zM201 408q0 -125 32 -197l605 739q-74 72 -197 72q-124 0 -223 -78.5 t-158 -225t-59 -310.5zM281 139q67 -73 202 -73q127 0 225.5 77.5t157 228t58.5 330.5q0 101 -35 179zM580 1241v21q66 51 150.5 142t129.5 165h137v-23q-51 -66 -157.5 -158.5t-192.5 -146.5h-67z" horiz-adv-x="1124" unicode="ǿ"/><glyph d="M37 55v109q163 -92 348 -92q188 0 295.5 86.5t107.5 232.5q0 61 -17 104.5t-52.5 78.5t-91 68t-131.5 75q-150 76 -209.5 164t-59.5 206t59 207.5t165 139t237 49.5q99 0 180 -17.5t168 -60.5l-32 -94q-66 40 -151.5 63t-164.5 23q-163 0 -259.5 -82.5t-96.5 -218.5 q0 -103 49 -170t182 -133q154 -79 213.5 -130t89 -113t29.5 -147q0 -126 -65.5 -224.5t-179.5 -148.5t-269 -50q-88 0 -172.5 17t-171.5 58zM199 -426q34 44 85.5 142t74.5 159h96v-20q-9 -40 -78.5 -145.5t-130.5 -162.5h-47v27z" horiz-adv-x="1020" unicode="Ș"/><glyph d="M25 55v107q74 -46 153 -71t148 -25q138 0 211 57.5t73 163.5q0 42 -15.5 74t-50 61.5t-132.5 85.5q-148 80 -200 145.5t-52 159.5q0 128 98.5 209.5t259.5 81.5q75 0 158.5 -17.5t140.5 -46.5l-35 -88q-136 64 -264 64q-116 0 -186 -53t-70 -138q0 -55 17 -88t60.5 -68.5 t119.5 -76.5q114 -63 161.5 -103.5t70 -86.5t22.5 -107q0 -144 -103 -229.5t-280 -85.5q-173 0 -305 75zM112 -426q34 44 85.5 142t74.5 159h96v-20q-9 -40 -78.5 -145.5t-130.5 -162.5h-47v27z" horiz-adv-x="827" unicode="ș"/><glyph d="M193 1368l20 94h973l-19 -94h-440l-289 -1368h-102l289 1368h-432zM161 -426q34 44 85.5 142t74.5 159h96v-20q-9 -40 -78.5 -145.5t-130.5 -162.5h-47v27z" horiz-adv-x="985" unicode="Ț"/><glyph d="M113 1006l14 67l184 17l97 253h55l-55 -256h286l-18 -81h-283l-135 -635q-22 -99 -22 -164q0 -139 126 -139q68 0 152 26v-86q-101 -28 -170 -28q-99 0 -153 54.5t-54 158.5q0 73 29 206l129 607h-182zM75 -426q34 44 85.5 142t74.5 159h96v-20q-9 -40 -78.5 -145.5 t-130.5 -162.5h-47v27z" horiz-adv-x="616" unicode="ț"/><glyph d="M-279 -381q47 -22 113 -22q82 0 128.5 51.5t72.5 177.5l266 1261h96l-268 -1271q-35 -165 -106.5 -236.5t-188.5 -71.5q-62 0 -113 19v92z" horiz-adv-x="475" unicode="ȷ"/><glyph d="M129 961q66 106 129.5 242.5t103.5 258.5h113l4 -22q-43 -105 -117.5 -235.5t-158.5 -243.5h-74z" horiz-adv-x="299" unicode="ʼ"/><glyph d="M444 1241v29q68 56 157.5 148.5t127.5 150.5h64q23 -64 72.5 -152.5t92.5 -146.5v-29h-49q-70 60 -161 207q-55 -57 -125 -114.5t-125 -92.5h-54z" horiz-adv-x="1135" unicode="ˆ"/><glyph d="M514 1540v29h49q72 -61 162 -207q55 57 125 114.5t125 92.5h53v-29q-68 -55 -155.5 -146t-129.5 -153h-63q-29 74 -76.5 158t-89.5 141z" horiz-adv-x="1135" unicode="ˇ"/><glyph d="M416 1245l18 88h508l-18 -88h-508z" horiz-adv-x="1096" unicode="ˉ"/><glyph d="M494 1440v21l2 20h69q0 -68 36 -103t122 -35q85 0 136.5 30.5t76.5 107.5h72q-29 -120 -101 -177t-192 -57q-105 0 -163 50.5t-58 142.5z" horiz-adv-x="1135" unicode="˘"/><glyph d="M326 1366q0 56 21.5 88.5t60.5 32.5q57 0 57 -72q0 -58 -22.5 -90.5t-57.5 -32.5q-59 0 -59 74z" horiz-adv-x="440" unicode="˙"/><glyph d="M561 1440q0 88 59.5 144t149.5 56q88 0 142.5 -50t54.5 -142t-57.5 -148.5t-145.5 -56.5q-93 0 -148 52t-55 145zM641 1440q0 -57 33 -90t90 -33q56 0 90.5 36t34.5 93t-33.5 90t-87.5 33q-60 0 -93.5 -36t-33.5 -93z" horiz-adv-x="1182" unicode="˚"/><glyph d="M-135 -268q0 69 48 132.5t169 135.5h72l-75 -60q-61 -47 -91.5 -95t-30.5 -101q0 -82 88 -82q33 0 76 10v-71q-41 -15 -98 -15q-75 0 -116.5 38t-41.5 108z" horiz-adv-x="348" unicode="˛"/><glyph d="M346 1243q19 108 71 166.5t134 58.5q41 0 73.5 -14t117.5 -72q52 -36 94 -36q43 0 71.5 30.5t46.5 100.5h76q-26 -118 -74.5 -173t-124.5 -55q-40 0 -77.5 19t-75.5 45q-34 23 -64.5 41t-68.5 18q-45 0 -74 -28.5t-51 -100.5h-74z" horiz-adv-x="1135" unicode="˜"/><glyph d="M461 1241v29q48 49 112 132t115 167h103v-23q-59 -80 -145 -170.5t-146 -134.5h-39zM774 1241v29q41 44 107.5 129.5t119.5 169.5h103v-23q-61 -82 -146.5 -171.5t-146.5 -133.5h-37z" horiz-adv-x="1135" unicode="˝"/><glyph d="M-53 -324q0 93 54.5 146t150.5 53q97 0 155 -55t58 -142q0 -92 -58 -146t-155 -54q-96 0 -150.5 53t-54.5 145zM29 -324q0 -58 31.5 -91.5t91.5 -33.5q55 0 89.5 33.5t34.5 91.5q0 57 -34.5 91t-89.5 34q-54 0 -88.5 -34t-34.5 -91z" horiz-adv-x="682" unicode="˳"/><glyph d="M-690 1548v21h115q46 -129 164 -303v-25h-66q-50 52 -114 144.5t-99 162.5z" horiz-adv-x="0" unicode="̀"/><glyph d="M-541 1241v21q66 51 150.5 142t129.5 165h137v-23q-51 -66 -157.5 -158.5t-192.5 -146.5h-67z" horiz-adv-x="0" unicode="́"/><glyph d="M-816 1243q19 108 71 166.5t134 58.5q41 0 73.5 -14t117.5 -72q52 -36 94 -36q43 0 71.5 30.5t46.5 100.5h76q-26 -118 -74.5 -173t-124.5 -55q-40 0 -77.5 19t-75.5 45q-34 23 -64.5 41t-68.5 18q-45 0 -74 -28.5t-51 -100.5h-74z" horiz-adv-x="0" unicode="̃"/><glyph d="M-586 1208l33 178q123 19 169 48t46 82q0 38 -34 58.5t-97 20.5q-48 0 -98 -10v70q46 10 98 10q221 0 221 -139q0 -152 -227 -193l-33 -125h-78z" horiz-adv-x="0" unicode="̉"/><glyph d="M-1069 1548v21h125q49 -137 164 -303v-25h-74q-47 47 -116 147t-99 160zM-737 1548v21h125q47 -132 163 -303v-25h-73q-47 47 -116 147t-99 160z" horiz-adv-x="0" unicode="̏"/><glyph d="M-810 -239q0 56 21.5 88.5t60.5 32.5q57 0 57 -72q0 -58 -22.5 -90.5t-57.5 -32.5q-59 0 -59 74z" horiz-adv-x="0" unicode="̣"/><glyph d="M651 1241v25q57 81 116.5 191.5t94.5 205.5h111v-31q-29 -70 -108.5 -191.5t-147.5 -199.5h-66z" horiz-adv-x="1163" unicode="΄"/><glyph d="M319 1368q0 52 20.5 81.5t55.5 29.5q51 0 51 -66q0 -52 -19.5 -82.5t-53.5 -30.5q-26 0 -40 18t-14 50zM541 1389v16q39 72 77.5 161.5t55.5 149.5h117v-18q-26 -60 -82 -151.5t-111 -157.5h-57zM733 1368q0 52 20.5 81.5t55.5 29.5q51 0 51 -66q0 -52 -19.5 -82.5 t-54.5 -30.5q-53 0 -53 68z" horiz-adv-x="1163" unicode="΅"/><glyph d="M-111 0l822 1468h67l201 -1468h-105l-69 520h-512l-287 -520h-117zM344 612h449l-39 291q-31 242 -39 402q-30 -63 -64.5 -130t-306.5 -563zM169 1136v25q57 81 116.5 191.5t94.5 205.5h111v-31q-29 -70 -108.5 -191.5t-147.5 -199.5h-66z" horiz-adv-x="1059" unicode="Ά"/><glyph d="M207 698q0 56 25 88.5t69 32.5q66 0 66 -72q0 -53 -25 -87.5t-67 -34.5q-68 0 -68 73z" horiz-adv-x="485" unicode="·"/><glyph d="M89 1136v25q57 81 116.5 191.5t94.5 205.5h111v-31q-29 -70 -108.5 -191.5t-147.5 -199.5h-66zM249 0l310 1462h727l-21 -94h-624l-117 -553h590l-21 -94h-588l-135 -627h627l-21 -94h-727z" horiz-adv-x="1098" unicode="Έ"/><glyph d="M89 1136v25q57 81 116.5 191.5t94.5 205.5h111v-31q-29 -70 -108.5 -191.5t-147.5 -199.5h-66zM260 0l310 1462h102l-139 -649h760l137 649h100l-309 -1462h-100l151 719h-760l-149 -719h-103z" horiz-adv-x="1526" unicode="Ή"/><glyph d="M258 0l310 1462h98l-309 -1462h-99zM109 1136v25q57 81 116.5 191.5t94.5 205.5h111v-31q-29 -70 -108.5 -191.5t-147.5 -199.5h-66z" horiz-adv-x="659" unicode="Ί"/><glyph d="M103 1136v25q57 81 116.5 191.5t94.5 205.5h111v-31q-29 -70 -108.5 -191.5t-147.5 -199.5h-66zM225 559q0 262 93 477.5t255 331t373 115.5q247 0 378.5 -148.5t131.5 -423.5q0 -255 -94 -481.5t-252 -338t-365 -111.5q-250 0 -385 149t-135 430zM329 573 q0 -245 109.5 -373t319.5 -128q169 0 300 98.5t210 300t79 430.5q0 240 -104.5 364t-310.5 124q-174 0 -308.5 -101t-214.5 -298t-80 -417z" horiz-adv-x="1520" unicode="Ό"/><glyph d="M512 1462h100l201 -817l544 817h117l-631 -932l-108 -530h-105l119 545zM89 1136v25q57 81 116.5 191.5t94.5 205.5h111v-31q-29 -70 -108.5 -191.5t-147.5 -199.5h-66z" horiz-adv-x="1231" unicode="Ύ"/><glyph d="M101 0l18 94h346q-84 94 -126 174.5t-67.5 180.5t-25.5 225q0 227 94.5 421t253 291t363.5 97q251 0 385.5 -145.5t134.5 -426.5q0 -253 -123 -472t-334 -345h377l-18 -94h-560l11 57q265 146 401.5 367.5t136.5 495.5q0 224 -108 346.5t-307 122.5q-135 0 -245 -52.5 t-188 -149.5t-124 -236.5t-46 -282.5q0 -129 27.5 -230.5t77 -186t156.5 -194.5l-11 -57h-499zM130 1136v25q57 81 116.5 191.5t94.5 205.5h111v-31q-29 -70 -108.5 -191.5t-147.5 -199.5h-66z" horiz-adv-x="1583" unicode="Ώ"/><glyph d="M121 193q0 83 29 206l147 688h98l-153 -716q-23 -103 -23 -164q0 -139 127 -139q55 0 131 20v-84q-84 -24 -149 -24q-100 0 -153.5 57.5t-53.5 155.5zM125 1368q0 52 20.5 81.5t55.5 29.5q51 0 51 -66q0 -52 -19.5 -82.5t-53.5 -30.5q-26 0 -40 18t-14 50zM347 1389v16 q39 72 77.5 161.5t55.5 149.5h117v-18q-26 -60 -82 -151.5t-111 -157.5h-57zM539 1368q0 52 20.5 81.5t55.5 29.5q51 0 51 -66q0 -52 -19.5 -82.5t-54.5 -30.5q-53 0 -53 68z" horiz-adv-x="559" unicode="ΐ"/><glyph d="M-111 0l822 1468h67l201 -1468h-105l-69 520h-512l-287 -520h-117zM344 612h449l-39 291q-31 242 -39 402q-30 -63 -64.5 -130t-306.5 -563z" horiz-adv-x="1059" unicode="Α"/><glyph d="M102 0l310 1462h379q190 0 290.5 -84t100.5 -241q0 -153 -90 -249t-254 -124v-4q125 -31 188.5 -113.5t63.5 -204.5q0 -205 -140.5 -323.5t-390.5 -118.5h-457zM223 90h342q201 0 309.5 87.5t108.5 256.5q0 145 -90 216t-275 71h-260zM377 811h278q206 0 313 81t107 238 q0 119 -78 180.5t-229 61.5h-272z" horiz-adv-x="1202" unicode="Β"/><glyph d="M102 0l310 1462h708l-20 -94h-604l-291 -1368h-103z" horiz-adv-x="981" unicode="Γ"/><glyph d="M-45 0l14 70l783 1398h67l193 -1402l-11 -66h-1046zM100 96h801q-70 531 -107 812t-40 397q-42 -90 -93.5 -188t-560.5 -1021z" horiz-adv-x="1092" unicode="Δ"/><glyph d="M102 0l310 1462h727l-21 -94h-624l-117 -553h590l-21 -94h-588l-135 -627h627l-21 -94h-727z" horiz-adv-x="1067" unicode="Ε"/><glyph d="M-12 0l22 92l1069 1276h-764l23 94h887l-19 -88l-1069 -1280h799l-23 -94h-925z" unicode="Ζ"/><glyph d="M102 0l310 1462h102l-139 -649h760l137 649h100l-309 -1462h-100l151 719h-760l-149 -719h-103z" horiz-adv-x="1366" unicode="Η"/><glyph d="M172 559q0 262 93 477.5t255 331t373 115.5q247 0 378.5 -148.5t131.5 -423.5q0 -255 -94 -481.5t-252 -338t-365 -111.5q-250 0 -385 149t-135 430zM276 573q0 -245 109.5 -373t319.5 -128q169 0 300 98.5t210 300t79 430.5q0 240 -104.5 364t-310.5 124 q-174 0 -308.5 -101t-214.5 -298t-80 -417zM469 696l18 97h600l-18 -97h-600z" horiz-adv-x="1464" unicode="Θ"/><glyph d="M102 0l310 1462h98l-309 -1462h-99z" horiz-adv-x="504" unicode="Ι"/><glyph d="M102 0l310 1462h102l-158 -723l133 121l680 602h138l-699 -610l371 -852h-111l-342 788l-190 -153l-131 -635h-103z" horiz-adv-x="1122" unicode="Κ"/><glyph d="M-113 0l830 1462h92l207 -1462h-101l-139 985q-29 206 -35 346h-4q-67 -148 -205 -391l-526 -940h-119z" horiz-adv-x="1100" unicode="Λ"/><glyph d="M109 0l309 1462h143l205 -1257h6l733 1257h150l-301 -1462h-101l191 901q79 369 100 447h-6l-780 -1348h-51l-222 1348h-6q-20 -154 -78 -426l-196 -922h-96z" horiz-adv-x="1669" unicode="Μ"/><glyph d="M102 0l310 1462h80l522 -1294h8q23 176 74 416l188 878h94l-309 -1462h-86l-516 1284h-8q-23 -149 -48 -273t-214 -1011h-95z" horiz-adv-x="1372" unicode="Ν"/><glyph d="M-18 0l18 94h889l-21 -94h-886zM266 721l19 94h626l-18 -94h-627zM309 1368l21 94h809l-19 -94h-811z" horiz-adv-x="1057" unicode="Ξ"/><glyph d="M172 559q0 262 93 477.5t255 331t373 115.5q247 0 378.5 -148.5t131.5 -423.5q0 -255 -94 -481.5t-252 -338t-365 -111.5q-250 0 -385 149t-135 430zM276 573q0 -245 109.5 -373t319.5 -128q169 0 300 98.5t210 300t79 430.5q0 240 -104.5 364t-310.5 124 q-174 0 -308.5 -101t-214.5 -298t-80 -417z" horiz-adv-x="1464" unicode="Ο"/><glyph d="M102 0l310 1462h960l-309 -1462h-100l288 1366h-757l-289 -1366h-103z" horiz-adv-x="1374" unicode="Π"/><glyph d="M102 0l310 1462h315q202 0 310 -92.5t108 -267.5q0 -500 -610 -500h-201l-129 -602h-103zM350 694h191q252 0 373.5 96.5t121.5 305.5q0 274 -329 274h-211z" horiz-adv-x="1145" unicode="Ρ"/><glyph d="M-23 0l15 88l626 655l-337 635l16 84h840l-19 -94h-530l-197 4l336 -641l-612 -641l151 4h639l-20 -94h-908z" horiz-adv-x="1044" unicode="Σ"/><glyph d="M193 1368l20 94h973l-19 -94h-440l-289 -1368h-102l289 1368h-432z" horiz-adv-x="985" unicode="Τ"/><glyph d="M193 1462h100l201 -817l544 817h117l-631 -932l-108 -530h-105l119 545z" horiz-adv-x="965" unicode="Υ"/><glyph d="M156 674q0 177 82.5 318.5t236 217.5t365.5 82l41 191h100l-39 -191q218 -14 334.5 -129.5t116.5 -316.5q0 -187 -84 -330.5t-237 -219.5t-357 -83l-51 -233h-103l49 233q-144 8 -245.5 69.5t-155 161.5t-53.5 230zM258 682q0 -174 100 -273.5t273 -103.5l188 893 q-171 -3 -296.5 -65t-195 -180t-69.5 -271zM733 305q264 8 409.5 147t145.5 388q0 163 -92 257.5t-274 100.5z" horiz-adv-x="1446" unicode="Φ"/><glyph d="M-135 0l608 766l-272 696h106l240 -626l483 626h119l-555 -719l285 -743h-107l-254 678l-526 -678h-127z" horiz-adv-x="971" unicode="Χ"/><glyph d="M209 848q0 102 29 239l79 375h103q-55 -258 -85.5 -399.5t-25.5 -206.5q0 -160 86 -236.5t267 -76.5h12l194 919h103l-195 -919h10q235 0 360.5 105t178.5 351l100 463h101l-105 -485q-56 -275 -214.5 -398.5t-436.5 -123.5h-12l-96 -455h-103l96 455h-8 q-212 0 -325 100.5t-113 292.5z" horiz-adv-x="1419" unicode="Ψ"/><glyph d="M27 0l18 94h346q-84 94 -126 174.5t-67.5 180.5t-25.5 225q0 227 94.5 421t253 291t363.5 97q251 0 385.5 -145.5t134.5 -426.5q0 -253 -123 -472t-334 -345h377l-18 -94h-560l11 57q265 146 401.5 367.5t136.5 495.5q0 224 -108 346.5t-307 122.5q-135 0 -245 -52.5 t-188 -149.5t-124 -236.5t-46 -282.5q0 -129 27.5 -230.5t77 -186t156.5 -194.5l-11 -57h-499z" horiz-adv-x="1511" unicode="Ω"/><glyph d="M102 0l310 1462h98l-309 -1462h-99zM260 1704q0 49 20.5 78t56.5 29q54 0 54 -64q0 -48 -21 -77t-55 -29q-55 0 -55 63zM604 1704q0 49 20.5 78t56.5 29q54 0 54 -64q0 -48 -21 -77t-55 -29q-55 0 -55 63z" horiz-adv-x="504" unicode="Ϊ"/><glyph d="M193 1462h100l201 -817l544 817h117l-631 -932l-108 -530h-105l119 545zM452 1704q0 49 20.5 78t56.5 29q54 0 54 -64q0 -48 -21 -77t-55 -29q-55 0 -55 63zM796 1704q0 49 20.5 78t56.5 29q54 0 54 -64q0 -48 -21 -77t-55 -29q-55 0 -55 63z" horiz-adv-x="965" unicode="Ϋ"/><glyph d="M102 354q0 197 75 376t200.5 276.5t277.5 97.5q113 0 185.5 -57t99.5 -173h6q52 143 105 213h82q-36 -61 -77 -183.5t-75 -278.5q-73 -344 -79.5 -390.5t-6.5 -70.5q0 -98 76 -98q39 0 94 22v-78q-60 -30 -123 -30q-77 0 -112 44.5t-35 116.5q0 55 12 133h-6 q-164 -294 -418 -294q-281 0 -281 374zM205 365q0 -152 50 -223.5t151 -71.5q92 0 181.5 61.5t158 165.5t105 227t36.5 217q0 79 -26 141.5t-77 99t-127 36.5q-124 0 -224 -82t-164 -245.5t-64 -325.5zM634 1241v25q57 81 116.5 191.5t94.5 205.5h111v-31 q-29 -70 -108.5 -191.5t-147.5 -199.5h-66z" horiz-adv-x="1137" unicode="ά"/><glyph d="M59 258q0 132 82 217.5t228 106.5v4q-72 25 -116 79.5t-44 135.5q0 138 103 220.5t276 82.5q162 0 289 -66l-39 -86q-51 29 -120.5 46.5t-131.5 17.5q-133 0 -204 -55.5t-71 -157.5q0 -91 63 -139t179 -48h86l-18 -92h-113q-168 0 -257 -66.5t-89 -191.5 q0 -95 62.5 -147.5t178.5 -52.5q82 0 175.5 24.5t162.5 63.5v-93q-68 -35 -159 -58t-187 -23q-157 0 -246.5 74t-89.5 204zM558 1241v25q57 81 116.5 191.5t94.5 205.5h111v-31q-29 -70 -108.5 -191.5t-147.5 -199.5h-66z" horiz-adv-x="840" unicode="έ"/><glyph d="M76 0l231 1087h82l-37 -221h6q164 238 416 238q130 0 195 -64t65 -184q0 -70 -24 -182l-256 -1166h-97l256 1184q21 92 21 156q0 80 -43.5 125t-134.5 45q-112 0 -210.5 -67t-166 -187.5t-103.5 -286.5l-102 -477h-98zM653 1241v25q57 81 116.5 191.5t94.5 205.5h111v-31 q-29 -70 -108.5 -191.5t-147.5 -199.5h-66z" horiz-adv-x="1153" unicode="ή"/><glyph d="M112 193q0 83 29 206l147 688h98l-153 -716q-23 -103 -23 -164q0 -139 127 -139q55 0 131 20v-84q-84 -24 -149 -24q-100 0 -153.5 57.5t-53.5 155.5zM312 1241v25q57 81 116.5 191.5t94.5 205.5h111v-31q-29 -70 -108.5 -191.5t-147.5 -199.5h-66z" horiz-adv-x="559" unicode="ί"/><glyph d="M141 326q0 105 37 270l105 491h102l-102 -479q-29 -141 -34 -184.5t-5 -89.5q0 -132 64 -200t188 -68q230 0 346 258.5t116 762.5h103q0 -1107 -578 -1107q-162 0 -252 91.5t-90 254.5zM442 1368q0 52 20.5 81.5t55.5 29.5q51 0 51 -66q0 -52 -19.5 -82.5t-53.5 -30.5 q-26 0 -40 18t-14 50zM664 1389v16q39 72 77.5 161.5t55.5 149.5h117v-18q-26 -60 -82 -151.5t-111 -157.5h-57zM856 1368q0 52 20.5 81.5t55.5 29.5q51 0 51 -66q0 -52 -19.5 -82.5t-54.5 -30.5q-53 0 -53 68z" horiz-adv-x="1139" unicode="ΰ"/><glyph d="M102 354q0 197 75 376t200.5 276.5t277.5 97.5q113 0 185.5 -57t99.5 -173h6q52 143 105 213h82q-36 -61 -77 -183.5t-75 -278.5q-73 -344 -79.5 -390.5t-6.5 -70.5q0 -98 76 -98q39 0 94 22v-78q-60 -30 -123 -30q-77 0 -112 44.5t-35 116.5q0 55 12 133h-6 q-164 -294 -418 -294q-281 0 -281 374zM205 365q0 -152 50 -223.5t151 -71.5q92 0 181.5 61.5t158 165.5t105 227t36.5 217q0 79 -26 141.5t-77 99t-127 36.5q-124 0 -224 -82t-164 -245.5t-64 -325.5z" horiz-adv-x="1137" unicode="α"/><glyph d="M-31 -492l348 1618q50 233 161 337t292 104q155 0 247.5 -88t92.5 -240q0 -115 -45 -205t-124.5 -146t-184.5 -73q125 -31 193.5 -127.5t68.5 -238.5q0 -136 -57.5 -243t-164 -166.5t-249.5 -59.5q-69 0 -128 14t-108 36.5t-118 73.5l-65 -296l-65 -300h-94zM211 188 q70 -56 158 -89t174 -33q170 0 271 101.5t101 274.5q0 334 -362 334h-53l16 82h59q211 0 322 95.5t111 279.5q0 118 -66.5 183t-185.5 65q-96 0 -164 -40.5t-111.5 -117t-72.5 -215.5z" horiz-adv-x="1151" unicode="β"/><glyph d="M119 -492q27 206 188 506l-184 1073h100l103 -636q19 -113 45 -342h4q69 151 168 329l352 649h100l-567 -1042q-177 -321 -207 -537h-102z" horiz-adv-x="883" unicode="γ"/><glyph d="M78 369q0 456 549 589q-205 155 -205 322q0 129 92 208t242 79q161 0 334 -115l-46 -78q-160 107 -299 107q-104 0 -162.5 -55.5t-58.5 -143.5q0 -47 17.5 -87.5t50.5 -79.5t123 -114q105 -87 156 -156.5t77.5 -150t26.5 -176.5q0 -148 -65.5 -276t-180 -195t-260.5 -67 q-180 0 -285.5 107t-105.5 282zM180 379q0 -147 79 -230t220 -83q119 0 208 58.5t137 161.5t48 232q0 115 -40.5 207t-137.5 172q-273 -68 -393.5 -195.5t-120.5 -322.5z" horiz-adv-x="1096" unicode="δ"/><glyph d="M59 258q0 132 82 217.5t228 106.5v4q-72 25 -116 79.5t-44 135.5q0 138 103 220.5t276 82.5q162 0 289 -66l-39 -86q-51 29 -120.5 46.5t-131.5 17.5q-133 0 -204 -55.5t-71 -157.5q0 -91 63 -139t179 -48h86l-18 -92h-113q-168 0 -257 -66.5t-89 -191.5 q0 -95 62.5 -147.5t178.5 -52.5q82 0 175.5 24.5t162.5 63.5v-93q-68 -35 -159 -58t-187 -23q-157 0 -246.5 74t-89.5 204z" horiz-adv-x="840" unicode="ε"/><glyph d="M117 385q0 227 186 480.5t627 613.5q-96 -6 -230 -6h-268l19 83h602l-19 -83l-191 -172q-226 -200 -358.5 -349t-198 -287t-65.5 -268q0 -85 23 -142t69.5 -96.5t157.5 -84.5q102 -41 145.5 -72t64.5 -70t21 -92q0 -64 -35 -128t-124 -150h-117q90 83 135 145t45 119 q0 50 -36.5 86.5t-155.5 81.5q-161 59 -229 150.5t-68 240.5z" horiz-adv-x="905" unicode="ζ"/><glyph d="M76 0l231 1087h82l-37 -221h6q164 238 416 238q130 0 195 -64t65 -184q0 -70 -24 -182l-256 -1166h-97l256 1184q21 92 21 156q0 80 -43.5 125t-134.5 45q-112 0 -210.5 -67t-166 -187.5t-103.5 -286.5l-102 -477h-98z" horiz-adv-x="1153" unicode="η"/><glyph d="M123 434q0 141 28.5 313t85.5 341.5t132.5 277.5t171 160.5t213.5 52.5q331 0 331 -432q0 -133 -28 -311t-84.5 -351.5t-129.5 -283t-167.5 -165.5t-214.5 -56q-170 0 -254 113t-84 341zM219 440q0 -190 61.5 -282t190.5 -92q169 0 284.5 168t194.5 536h-696 q-12 -55 -23.5 -158t-11.5 -172zM272 860h693q26 150 26 283q0 182 -60 267t-190 85q-331 0 -469 -635z" horiz-adv-x="1079" unicode="θ"/><glyph d="M121 193q0 83 29 206l147 688h98l-153 -716q-23 -103 -23 -164q0 -139 127 -139q55 0 131 20v-84q-84 -24 -149 -24q-100 0 -153.5 57.5t-53.5 155.5z" horiz-adv-x="559" unicode="ι"/><glyph d="M76 0l229 1087h96l-65 -311l-70 -299h4l609 610h125l-474 -469l297 -618h-106l-264 559l-205 -188l-80 -371h-96z" horiz-adv-x="944" unicode="κ"/><glyph d="M-115 0q155 272 314 543.5t315 546.5l-20 192q-10 105 -50.5 154t-128.5 49q-39 0 -104 -17l-8 82q51 19 125 19q119 0 180.5 -63t77.5 -212l110 -1112q7 -63 25.5 -93t60.5 -30q32 0 68 13v-78q-39 -14 -88 -14q-78 0 -114.5 43t-45.5 139l-47 495q-15 170 -20 308h-7 q-49 -107 -125 -240l-415 -725h-103z" horiz-adv-x="895" unicode="λ"/><glyph d="M-29 -492l338 1579h101l-152 -698q-20 -96 -20 -147q0 -82 48.5 -127t135.5 -45q110 0 207 64.5t162.5 182.5t101.5 285l104 485h99l-234 -1087h-78l29 205h-6q-164 -221 -404 -221q-85 0 -139 32.5t-76 89.5h-6q-18 -132 -51 -284l-63 -314h-97z" horiz-adv-x="1171" unicode="μ"/><glyph d="M121 1087h98l70 -571q27 -226 45 -426q202 167 346.5 423.5t208.5 573.5h98q-68 -345 -221 -610.5t-404 -476.5h-100z" horiz-adv-x="936" unicode="ν"/><glyph d="M59 373q0 175 119.5 294t333.5 158v4q-118 22 -179 90t-61 175q0 134 100.5 237t284.5 150q-115 -8 -202 -8h-109l19 83h602l-21 -83h-33q-131 0 -266 -53.5t-206.5 -136t-71.5 -183.5q0 -117 94.5 -175.5t273.5 -58.5h78l-20 -84h-72q-164 0 -296 -51t-197.5 -139.5 t-65.5 -210.5q0 -103 53 -171t195 -118q122 -43 168 -73.5t69 -73t23 -103.5t-38 -129t-108 -129h-120q161 132 161 260q0 48 -31 80t-102 59q-125 45 -185 75.5t-100.5 71t-65 99t-24.5 144.5z" horiz-adv-x="874" unicode="ξ"/><glyph d="M98 403q0 191 73 358t197 257t281 90q180 0 278.5 -108.5t98.5 -299.5q0 -197 -71.5 -368.5t-195.5 -261.5t-286 -90q-184 0 -279.5 109.5t-95.5 313.5zM201 408q0 -342 282 -342q127 0 225.5 77.5t157 228t58.5 330.5q0 154 -73 237t-210 83q-124 0 -223 -78.5 t-158 -225t-59 -310.5z" horiz-adv-x="1124" unicode="ο"/><glyph d="M90 0l213 1006h-213l14 63l187 18h885l-19 -81h-192l-156 -742q-16 -75 -16 -121q0 -35 19 -58.5t54 -23.5q43 0 90 13v-82q-43 -12 -104 -12q-72 0 -115 43t-43 106t21 154l153 723h-467l-213 -1006h-98z" horiz-adv-x="1106" unicode="π"/><glyph d="M-33 -492l250 1174q95 426 451 426q173 0 271.5 -107.5t98.5 -300.5q0 -201 -72 -372.5t-193 -259.5t-275 -88q-89 0 -160 28t-148 98q-28 -152 -124 -598h-99zM209 193q127 -127 287 -127q126 0 223 77.5t157 229.5t60 329q0 154 -73 237t-210 83q-135 0 -220 -90 t-132 -305z" horiz-adv-x="1137" unicode="ρ"/><glyph d="M102 412q0 195 75 359t201 248.5t286 84.5q131 0 241 -43l-28 -90q-110 47 -218 47q-129 0 -233 -78.5t-162.5 -219t-58.5 -306.5q0 -94 24 -156.5t75 -106.5t169 -90q136 -52 182.5 -104t46.5 -135q0 -129 -145 -260h-121q75 65 119.5 125t44.5 118q0 61 -37.5 97.5 t-144.5 77.5q-175 64 -245.5 163t-70.5 269z" horiz-adv-x="918" unicode="ς"/><glyph d="M104 444q0 197 77 345t216.5 223t333.5 75h461l-18 -81h-240q35 -70 57.5 -173.5t22.5 -199.5q0 -307 -132 -480t-372 -173q-192 0 -299 123t-107 341zM207 455q0 -188 82 -288.5t235 -100.5q119 0 206 66t134 193t47 314q0 83 -18.5 186t-48.5 181h-109 q-252 0 -390 -145t-138 -406z" horiz-adv-x="1137" unicode="σ"/><glyph d="M72 1006l14 63l184 18h580l-16 -81h-330l-135 -635q-23 -107 -23 -164q0 -65 32 -102t95 -37q61 0 152 26v-86q-17 -7 -72.5 -17.5t-97.5 -10.5q-99 0 -153 55t-54 158q0 82 28 206l130 607h-334z" horiz-adv-x="770" unicode="τ"/><glyph d="M141 326q0 105 37 270l105 491h102l-102 -479q-29 -141 -34 -184.5t-5 -89.5q0 -132 64 -200t188 -68q230 0 346 258.5t116 762.5h103q0 -1107 -578 -1107q-162 0 -252 91.5t-90 254.5z" horiz-adv-x="1139" unicode="υ"/><glyph d="M59 436q0 187 77 349.5t247 320.5l63 -64q-149 -136 -217.5 -278t-68.5 -322q0 -170 81.5 -267t235.5 -112l160 742q31 149 109 226t194 77q131 0 204 -95t73 -261q0 -226 -80 -401t-229.5 -271.5t-354.5 -104.5l-98 -467h-97l101 469q-191 20 -295.5 140t-104.5 319z M571 63q170 10 294.5 96t189.5 236.5t65 345.5q0 134 -48.5 205.5t-135.5 71.5q-82 0 -133 -56t-76 -176z" horiz-adv-x="1274" unicode="φ"/><glyph d="M-215 -492l606 822l-65 512q-11 85 -23.5 112.5t-34.5 41.5t-57 14q-38 0 -78 -17l-18 84q20 8 53.5 14.5t54.5 6.5q63 0 100 -21.5t58 -61t35 -145.5l55 -452l481 669h107l-567 -788l69 -524q12 -100 44 -139t91 -39q47 0 86 14v-82q-53 -21 -112 -21q-177 0 -203 230 l-57 471l-506 -701h-119z" horiz-adv-x="993" unicode="χ"/><glyph d="M154 391q0 96 30 238l99 458h102l-98 -454q-31 -139 -31 -232q0 -293 283 -323q118 547 184.5 851.5t132.5 626.5h94q-237 -1094 -317 -1478q286 17 418.5 257.5t132.5 751.5h102q0 -391 -74.5 -624t-224 -347.5t-373.5 -123.5l-102 -484h-94l102 484q-180 17 -273 120.5 t-93 278.5z" horiz-adv-x="1364" unicode="ψ"/><glyph d="M68 344q0 192 68 382t204 361h102q-141 -196 -208.5 -376t-67.5 -363q0 -138 47 -209t139 -71q86 0 148.5 68t97.5 224l72 332h96l-66 -309q-18 -90 -18 -141q0 -84 42 -129t120 -45q157 0 254.5 186.5t97.5 482.5q0 199 -31 350h92q14 -56 25.5 -156t11.5 -198 q0 -215 -60 -394.5t-162 -269t-236 -89.5q-88 0 -149.5 47t-78.5 131q-93 -178 -270 -178q-130 0 -200 95t-70 269z" horiz-adv-x="1364" unicode="ω"/><glyph d="M121 193q0 83 29 206l147 688h98l-153 -716q-23 -103 -23 -164q0 -139 127 -139q55 0 131 20v-84q-84 -24 -149 -24q-100 0 -153.5 57.5t-53.5 155.5zM184 1366q0 49 20.5 78t56.5 29q54 0 54 -64q0 -48 -21 -77t-55 -29q-55 0 -55 63zM528 1366q0 49 20.5 78t56.5 29 q54 0 54 -64q0 -48 -21 -77t-55 -29q-55 0 -55 63z" horiz-adv-x="559" unicode="ϊ"/><glyph d="M141 326q0 105 37 270l105 491h102l-102 -479q-29 -141 -34 -184.5t-5 -89.5q0 -132 64 -200t188 -68q230 0 346 258.5t116 762.5h103q0 -1107 -578 -1107q-162 0 -252 91.5t-90 254.5zM485 1366q0 49 20.5 78t56.5 29q54 0 54 -64q0 -48 -21 -77t-55 -29q-55 0 -55 63z M829 1366q0 49 20.5 78t56.5 29q54 0 54 -64q0 -48 -21 -77t-55 -29q-55 0 -55 63z" horiz-adv-x="1139" unicode="ϋ"/><glyph d="M98 403q0 191 73 358t197 257t281 90q180 0 278.5 -108.5t98.5 -299.5q0 -197 -71.5 -368.5t-195.5 -261.5t-286 -90q-184 0 -279.5 109.5t-95.5 313.5zM201 408q0 -342 282 -342q127 0 225.5 77.5t157 228t58.5 330.5q0 154 -73 237t-210 83q-124 0 -223 -78.5 t-158 -225t-59 -310.5zM642 1241v25q57 81 116.5 191.5t94.5 205.5h111v-31q-29 -70 -108.5 -191.5t-147.5 -199.5h-66z" horiz-adv-x="1124" unicode="ό"/><glyph d="M141 326q0 105 37 270l105 491h102l-102 -479q-29 -141 -34 -184.5t-5 -89.5q0 -132 64 -200t188 -68q230 0 346 258.5t116 762.5h103q0 -1107 -578 -1107q-162 0 -252 91.5t-90 254.5zM627 1241v25q57 81 116.5 191.5t94.5 205.5h111v-31q-29 -70 -108.5 -191.5 t-147.5 -199.5h-66z" horiz-adv-x="1139" unicode="ύ"/><glyph d="M68 344q0 192 68 382t204 361h102q-141 -196 -208.5 -376t-67.5 -363q0 -138 47 -209t139 -71q86 0 148.5 68t97.5 224l72 332h96l-66 -309q-18 -90 -18 -141q0 -84 42 -129t120 -45q157 0 254.5 186.5t97.5 482.5q0 199 -31 350h92q14 -56 25.5 -156t11.5 -198 q0 -215 -60 -394.5t-162 -269t-236 -89.5q-88 0 -149.5 47t-78.5 131q-93 -178 -270 -178q-130 0 -200 95t-70 269zM792 1241v25q57 81 116.5 191.5t94.5 205.5h111v-31q-29 -70 -108.5 -191.5t-147.5 -199.5h-66z" horiz-adv-x="1364" unicode="ώ"/><glyph d="M12 784l15 90q54 27 108 27q56 0 93.5 -38.5t37.5 -96.5q0 -76 -51 -191q-47 -107 -68.5 -179t-21.5 -140q0 -87 50 -137.5t140 -50.5q133 0 244 101t187 295.5t98 418.5h-23q-253 0 -378.5 89.5t-125.5 274.5q0 147 87.5 238.5t226.5 91.5q157 0 239 -124.5t82 -362.5 l-4 -125h144l-15 -82h-135q-15 -169 -73.5 -349.5t-145.5 -306t-192.5 -186.5t-227.5 -61q-130 0 -203 72.5t-73 205.5q0 103 58 243q68 163 77.5 196t9.5 59q0 31 -18.5 45t-38.5 14q-19 0 -48.5 -8t-54.5 -23zM418 1251q0 -101 41 -163t124 -92.5t236 -30.5h29q4 42 4 106 q0 214 -55.5 317t-167.5 103q-96 0 -153.5 -64.5t-57.5 -175.5z" horiz-adv-x="1036" unicode="ϑ"/><glyph d="M193 1462h100l201 -817q128 239 245.5 435t175.5 267t109 99.5t111 28.5q29 0 49.5 -5t34.5 -8l-27 -88q-28 10 -59 10q-59 0 -111.5 -52.5t-129.5 -172.5t-176 -287.5t-192 -341.5l-108 -530h-105l119 545z" horiz-adv-x="975" unicode="ϒ"/><glyph d="M115 1006l14 63l186 18h1215l-19 -81h-247q15 -69 29 -156t14 -205q0 -182 -58 -344.5t-155 -241.5t-226 -79q-86 0 -143 47t-76 131q-94 -178 -258 -178q-130 0 -198 90.5t-68 273.5q0 173 68 344.5t192 317.5h-270zM227 352q0 -284 179 -284q82 0 140 68t93 224l59 275 h97l-54 -252q-18 -99 -18 -137q0 -80 40.5 -129t110.5 -49q93 0 167.5 71.5t119.5 212t45 297.5q0 191 -32 357h-687q-260 -327 -260 -654z" horiz-adv-x="1464" unicode="ϖ"/><glyph d="M102 0l310 1462h727l-21 -94h-624l-117 -553h590l-21 -94h-588l-135 -627h627l-21 -94h-727zM612 1886v21h115q46 -129 164 -303v-25h-66q-50 52 -114 144.5t-99 162.5z" horiz-adv-x="1067" unicode="Ѐ"/><glyph d="M102 0l310 1462h727l-21 -94h-624l-117 -553h590l-21 -94h-588l-135 -627h627l-21 -94h-727zM558 1704q0 49 20.5 78t56.5 29q54 0 54 -64q0 -48 -21 -77t-55 -29q-55 0 -55 63zM902 1704q0 49 20.5 78t56.5 29q54 0 54 -64q0 -48 -21 -77t-55 -29q-55 0 -55 63z" horiz-adv-x="1067" unicode="Ё"/><glyph d="M197 1368l20 94h850l-18 -94h-443l-106 -496h305q167 0 248.5 -76.5t81.5 -211.5q0 -75 -15 -148l-24 -129q-32 -164 -120 -242.5t-245 -78.5q-59 0 -129 14v98q14 -3 48.5 -10.5t80.5 -7.5q121 0 183.5 60t89.5 210l16 90q12 64 12 133q0 109 -59.5 159t-190.5 50h-301 l-164 -782h-102l289 1368h-307z" horiz-adv-x="1292" unicode="Ђ"/><glyph d="M102 0l310 1462h708l-20 -94h-604l-291 -1368h-103zM664 1579v21q66 51 150.5 142t129.5 165h137v-23q-51 -66 -157.5 -158.5t-192.5 -146.5h-67z" horiz-adv-x="981" unicode="Ѓ"/><glyph d="M170 535q0 258 101 479t280.5 345t409.5 124q177 0 307 -68l-45 -90q-113 64 -262 64q-241 0 -411 -151t-239 -415h676l-18 -94h-678q-17 -85 -17 -190q0 -226 111.5 -346.5t316.5 -120.5q140 0 304 51v-94q-156 -49 -316 -49q-252 0 -386 143t-134 412z" horiz-adv-x="1169" unicode="Є"/><glyph d="M37 55v109q163 -92 348 -92q188 0 295.5 86.5t107.5 232.5q0 61 -17 104.5t-52.5 78.5t-91 68t-131.5 75q-150 76 -209.5 164t-59.5 206t59 207.5t165 139t237 49.5q99 0 180 -17.5t168 -60.5l-32 -94q-66 40 -151.5 63t-164.5 23q-163 0 -259.5 -82.5t-96.5 -218.5 q0 -103 49 -170t182 -133q154 -79 213.5 -130t89 -113t29.5 -147q0 -126 -65.5 -224.5t-179.5 -148.5t-269 -50q-88 0 -172.5 17t-171.5 58z" horiz-adv-x="1020" unicode="Ѕ"/><glyph d="M102 0l310 1462h98l-309 -1462h-99z" horiz-adv-x="504" unicode="І"/><glyph d="M102 0l310 1462h98l-309 -1462h-99zM260 1704q0 49 20.5 78t56.5 29q54 0 54 -64q0 -48 -21 -77t-55 -29q-55 0 -55 63zM604 1704q0 49 20.5 78t56.5 29q54 0 54 -64q0 -48 -21 -77t-55 -29q-55 0 -55 63z" horiz-adv-x="504" unicode="Ї"/><glyph d="M-324 -336l11 92q57 -20 137 -20q213 0 262 241l309 1485h105l-314 -1491q-35 -170 -125 -250.5t-241 -80.5q-48 0 -88 8t-56 16z" horiz-adv-x="477" unicode="Ј"/><glyph d="M-84 -6v96q45 -16 102 -16q78 0 132.5 44t104 143.5t141 383t245.5 817.5h573l-139 -651h232q187 0 287 -89.5t100 -256.5q0 -223 -140 -344t-391 -121h-362l289 1368h-371l-40 -137q-132 -452 -217 -706t-142 -354.5t-129 -147t-173 -46.5q-54 0 -102 17zM922 90h239 q205 0 315.5 92t110.5 277q0 134 -74.5 198t-224.5 64h-231z" horiz-adv-x="1817" unicode="Љ"/><glyph d="M102 0l310 1462h102l-139 -649h676l137 649h104l-139 -649h231q186 0 287 -90.5t101 -257.5q0 -223 -140 -344t-391 -121h-362l151 719h-676l-149 -719h-103zM999 90h240q204 0 315 92t111 277q0 132 -73.5 196t-225.5 64h-231z" horiz-adv-x="1894" unicode="Њ"/><glyph d="M197 1368l20 94h850l-18 -94h-443l-106 -496h305q332 0 332 -294q0 -41 -6.5 -82.5t-108.5 -495.5h-98l84 379q28 117 28 184q0 115 -59.5 167t-194.5 52h-301l-164 -782h-102l289 1368h-307z" horiz-adv-x="1313" unicode="Ћ"/><glyph d="M102 0l310 1462h102l-158 -727l787 727h143l-809 -733l563 -729h-129l-555 729l-151 -729h-103zM721 1579v21q66 51 150.5 142t129.5 165h137v-23q-51 -66 -157.5 -158.5t-192.5 -146.5h-67z" horiz-adv-x="1106" unicode="Ќ"/><glyph d="M102 0l310 1462h102l-186 -878q-79 -346 -95 -406l1035 1284h110l-309 -1462h-100q120 569 184.5 876t99.5 431l-1050 -1307h-101zM690 1886v21h115q46 -129 164 -303v-25h-66q-50 52 -114 144.5t-99 162.5z" horiz-adv-x="1368" unicode="Ѝ"/><glyph d="M-23 10v111q67 -37 162 -37q111 0 203 71.5t209 264.5l-318 1042h105l194 -651q13 -41 89 -319q33 61 88.5 156t507.5 814h116l-723 -1140q-112 -180 -223.5 -261t-253.5 -81q-93 0 -156 30zM503 1792q0 38 13 74h82q-8 -45 -8 -62q0 -68 42.5 -103.5t143.5 -35.5 q231 0 258 201h94q-17 -137 -110.5 -212t-243.5 -75q-140 0 -205.5 58t-65.5 155z" horiz-adv-x="1145" unicode="Ў"/><glyph d="M102 0l310 1462h100l-289 -1366h758l289 1366h102l-309 -1462h-424l-76 -356h-100l78 356h-439z" horiz-adv-x="1374" unicode="Џ"/><glyph d="M-111 0l822 1468h67l201 -1468h-105l-69 520h-512l-287 -520h-117zM344 612h449l-39 291q-31 242 -39 402q-30 -63 -64.5 -130t-306.5 -563z" horiz-adv-x="1059" unicode="А"/><glyph d="M102 0l310 1462h680l-21 -94h-575l-119 -557h231q187 0 287 -89.5t100 -256.5q0 -222 -139 -343.5t-391 -121.5h-363zM223 90h240q204 0 315 92t111 277q0 134 -74.5 198t-224.5 64h-232z" horiz-adv-x="1112" unicode="Б"/><glyph d="M102 0l310 1462h379q190 0 290.5 -84t100.5 -241q0 -153 -90 -249t-254 -124v-4q125 -31 188.5 -113.5t63.5 -204.5q0 -205 -140.5 -323.5t-390.5 -118.5h-457zM223 90h342q201 0 309.5 87.5t108.5 256.5q0 145 -90 216t-275 71h-260zM377 811h278q206 0 313 81t107 238 q0 119 -78 180.5t-229 61.5h-272z" horiz-adv-x="1202" unicode="В"/><glyph d="M102 0l310 1462h708l-20 -94h-604l-291 -1368h-103z" horiz-adv-x="981" unicode="Г"/><glyph d="M-164 -356l105 450h79q178 207 347 555.5t323 812.5h539l-291 -1368h170l-98 -450h-105l80 356h-967l-81 -356h-101zM139 94h697l270 1274h-344q-146 -435 -308.5 -765.5t-314.5 -508.5z" horiz-adv-x="1165" unicode="Д"/><glyph d="M102 0l310 1462h727l-21 -94h-624l-117 -553h590l-21 -94h-588l-135 -627h627l-21 -94h-727z" horiz-adv-x="1067" unicode="Е"/><glyph d="M-88 0l729 760l-424 702h125l414 -704l147 704h103l-152 -706l692 706h140l-717 -725l434 -737h-123l-430 737l-154 -737h-102l158 739l-699 -739h-141z" horiz-adv-x="1491" unicode="Ж"/><glyph d="M-31 59v117q183 -106 402 -106q204 0 314 93.5t110 260.5q0 287 -373 287h-182l18 96h178q131 0 237 45t158 123.5t52 183.5q0 114 -67 176t-191 62q-168 0 -340 -119l-54 76q190 129 406 129q165 0 257.5 -82t92.5 -232q0 -160 -91 -263.5t-267 -145.5v-4 q130 -23 199 -110.5t69 -227.5q0 -130 -67.5 -232.5t-187 -154t-284.5 -51.5q-211 0 -389 79z" horiz-adv-x="1020" unicode="З"/><glyph d="M102 0l310 1462h102l-186 -878q-79 -346 -95 -406l1035 1284h110l-309 -1462h-100q120 569 184.5 876t99.5 431l-1050 -1307h-101z" horiz-adv-x="1368" unicode="И"/><glyph d="M102 0l310 1462h102l-186 -878q-79 -346 -95 -406l1035 1284h110l-309 -1462h-100q120 569 184.5 876t99.5 431l-1050 -1307h-101zM628 1792q0 38 13 74h82q-8 -45 -8 -62q0 -68 42.5 -103.5t143.5 -35.5q231 0 258 201h94q-17 -137 -110.5 -212t-243.5 -75 q-140 0 -205.5 58t-65.5 155z" horiz-adv-x="1368" unicode="Й"/><glyph d="M102 0l310 1462h102l-158 -727l787 727h143l-809 -733l563 -729h-129l-555 729l-151 -729h-103z" horiz-adv-x="1106" unicode="К"/><glyph d="M-84 -6v96q45 -16 102 -16q78 0 132.5 44t104 143.5t141 383t245.5 817.5h633l-309 -1462h-101l289 1368h-434l-40 -137q-132 -452 -217 -706t-142 -354.5t-129 -147t-173 -46.5q-54 0 -102 17z" horiz-adv-x="1266" unicode="Л"/><glyph d="M109 0l309 1462h143l205 -1257h6l733 1257h150l-301 -1462h-101l191 901q79 369 100 447h-6l-780 -1348h-51l-222 1348h-6q-20 -154 -78 -426l-196 -922h-96z" horiz-adv-x="1669" unicode="М"/><glyph d="M102 0l310 1462h102l-139 -649h760l137 649h100l-309 -1462h-100l151 719h-760l-149 -719h-103z" horiz-adv-x="1366" unicode="Н"/><glyph d="M172 559q0 262 93 477.5t255 331t373 115.5q247 0 378.5 -148.5t131.5 -423.5q0 -255 -94 -481.5t-252 -338t-365 -111.5q-250 0 -385 149t-135 430zM276 573q0 -245 109.5 -373t319.5 -128q169 0 300 98.5t210 300t79 430.5q0 240 -104.5 364t-310.5 124 q-174 0 -308.5 -101t-214.5 -298t-80 -417z" horiz-adv-x="1464" unicode="О"/><glyph d="M102 0l310 1462h960l-309 -1462h-100l288 1366h-757l-289 -1366h-103z" horiz-adv-x="1374" unicode="П"/><glyph d="M102 0l310 1462h315q202 0 310 -92.5t108 -267.5q0 -500 -610 -500h-201l-129 -602h-103zM350 694h191q252 0 373.5 96.5t121.5 305.5q0 274 -329 274h-211z" horiz-adv-x="1145" unicode="Р"/><glyph d="M170 535q0 266 104.5 488t284.5 341t402 119q177 0 307 -68l-45 -90q-55 30 -124.5 47t-137.5 17q-197 0 -351.5 -104.5t-245 -304.5t-90.5 -441q0 -225 110.5 -346t317.5 -121q140 0 304 51v-94q-156 -49 -316 -49q-252 0 -386 145t-134 410z" horiz-adv-x="1169" unicode="С"/><glyph d="M193 1368l20 94h973l-19 -94h-440l-289 -1368h-102l289 1368h-432z" horiz-adv-x="985" unicode="Т"/><glyph d="M-23 10v111q67 -37 162 -37q111 0 203 71.5t209 264.5l-318 1042h105l194 -651q13 -41 89 -319q33 61 88.5 156t507.5 814h116l-723 -1140q-112 -180 -223.5 -261t-253.5 -81q-93 0 -156 30z" horiz-adv-x="1145" unicode="У"/><glyph d="M156 674q0 177 82.5 318.5t236 217.5t365.5 82l41 191h100l-39 -191q218 -14 334.5 -129.5t116.5 -316.5q0 -187 -84 -330.5t-237 -219.5t-357 -83l-51 -233h-103l49 233q-144 8 -245.5 69.5t-155 161.5t-53.5 230zM258 682q0 -174 100 -273.5t273 -103.5l188 893 q-171 -3 -296.5 -65t-195 -180t-69.5 -271zM733 305q264 8 409.5 147t145.5 388q0 163 -92 257.5t-274 100.5z" horiz-adv-x="1446" unicode="Ф"/><glyph d="M-135 0l608 766l-272 696h106l240 -626l483 626h119l-555 -719l285 -743h-107l-254 678l-526 -678h-127z" horiz-adv-x="971" unicode="Х"/><glyph d="M102 0l310 1462h100l-289 -1368h758l291 1368h100l-289 -1368h168l-98 -450h-104l79 356h-1026z" horiz-adv-x="1423" unicode="Ц"/><glyph d="M205 801q0 64 22 164l105 497h102l-102 -483q-25 -116 -25 -172q0 -92 57 -139t162 -47q195 0 412 90l160 751h100l-309 -1462h-101l132 621q-219 -91 -408 -91q-146 0 -226.5 69.5t-80.5 201.5z" horiz-adv-x="1192" unicode="Ч"/><glyph d="M102 0l310 1462h100l-289 -1368h600l291 1368h100l-288 -1368h602l291 1368h100l-309 -1462h-1508z" horiz-adv-x="1905" unicode="Ш"/><glyph d="M102 0l310 1462h100l-289 -1368h600l291 1368h100l-288 -1368h602l291 1368h100l-289 -1368h168l-98 -450h-105l80 356h-1573z" horiz-adv-x="1970" unicode="Щ"/><glyph d="M193 1368l20 94h446l-139 -651h232q187 0 287 -89.5t100 -256.5q0 -223 -140 -344t-391 -121h-362l289 1368h-342zM367 90h239q205 0 315.5 92t110.5 277q0 134 -74.5 198t-224.5 64h-231z" horiz-adv-x="1262" unicode="Ъ"/><glyph d="M102 0l310 1462h104l-139 -651h231q187 0 287 -89.5t100 -256.5q0 -222 -139 -343.5t-391 -121.5h-363zM223 90h240q204 0 315 92t111 277q0 134 -74.5 198t-224.5 64h-232zM1141 0l309 1462h102l-309 -1462h-102z" horiz-adv-x="1536" unicode="Ы"/><glyph d="M102 0l310 1462h104l-139 -651h231q187 0 287 -89.5t100 -256.5q0 -222 -139 -343.5t-391 -121.5h-363zM223 90h240q204 0 315 92t111 277q0 134 -74.5 198t-224.5 64h-232z" horiz-adv-x="1118" unicode="Ь"/><glyph d="M14 55v109q184 -92 351 -92q254 0 410.5 168t205.5 493h-666l17 96h659l2 72q0 239 -105.5 363.5t-309.5 124.5q-128 0 -306 -64l-26 94q114 38 195.5 51t150.5 13q250 0 380 -148.5t130 -423.5q0 -272 -95.5 -492t-259.5 -329.5t-382 -109.5q-206 0 -351 75z" horiz-adv-x="1169" unicode="Э"/><glyph d="M102 0l310 1462h102l-139 -649h383q40 203 136.5 354.5t240.5 233.5t319 82q247 0 378.5 -148.5t131.5 -423.5q0 -245 -88 -469.5t-248 -343t-375 -118.5q-250 0 -385 149t-135 430q0 96 8 160h-387l-149 -719h-103zM838 573q0 -245 109.5 -373t318.5 -128 q169 0 300 98.5t210 300t79 430.5q0 240 -104.5 364t-310.5 124q-173 0 -307.5 -100.5t-214.5 -299t-80 -416.5z" horiz-adv-x="2025" unicode="Ю"/><glyph d="M-51 0l532 662q-105 40 -165 132.5t-60 211.5q0 219 143 337.5t402 118.5h332l-310 -1462h-102l133 635h-266l-514 -635h-125zM358 1012q0 -133 82 -210t230 -77h204l138 645h-197q-229 0 -343 -91.5t-114 -266.5z" horiz-adv-x="1118" unicode="Я"/><glyph d="M102 354q0 197 75 376t200.5 276.5t277.5 97.5q232 0 279 -219h6l59 202h80l-229 -1087h-82l45 274h-6q-84 -142 -187 -218t-237 -76q-281 0 -281 374zM205 365q0 -152 50 -223.5t151 -71.5q89 0 177.5 62t159 166t107.5 230t37 213q0 79 -26 141.5t-77 99t-127 36.5 q-124 0 -224 -82t-164 -245.5t-64 -325.5z" horiz-adv-x="1133" unicode="а"/><glyph d="M98 434q0 240 67.5 465.5t178.5 363t252 183.5q93 30 259 63.5t241 44.5l12 -86l-63 -12q-306 -57 -429 -98q-133 -47 -231.5 -191.5t-153.5 -378.5h5q178 218 397 218q150 0 233.5 -99t83.5 -286q0 -188 -63.5 -340t-173.5 -226.5t-258 -74.5q-172 0 -264.5 117 t-92.5 337zM199 442q0 -192 65.5 -284t204.5 -92q116 0 202 69t131.5 192t45.5 281t-62.5 234t-171.5 76q-101 0 -196.5 -58t-200.5 -192q-6 -35 -12 -107t-6 -119z" horiz-adv-x="1061" unicode="б"/><glyph d="M104 422q0 185 73 343.5t203.5 248.5t293.5 90q148 0 229.5 -70.5t81.5 -195.5q0 -119 -73 -193.5t-207 -103.5v-4q104 -17 162.5 -76.5t58.5 -151.5q0 -94 -50.5 -169t-146 -117.5t-227.5 -42.5q-194 0 -296 114.5t-102 327.5zM203 414q0 -169 80.5 -256.5t234.5 -87.5 q144 0 224.5 62t80.5 169q0 186 -270 186h-348zM213 575h240q213 0 321.5 65t108.5 187q0 88 -56 139.5t-161 51.5q-166 0 -290 -121.5t-163 -321.5z" horiz-adv-x="1065" unicode="в"/><glyph d="M78 242q0 82 35.5 144.5t108.5 113t227 110.5q148 59 203 93t80.5 73t25.5 90q0 75 -49 112.5t-140 37.5q-58 0 -141 -19.5t-168 -52.5l-29 86q121 42 171 53t94.5 16t85.5 5q136 0 207 -58.5t71 -166.5q0 -111 -76.5 -189t-267.5 -147q-152 -56 -214.5 -95t-92 -87 t-29.5 -115q0 -87 55 -133.5t162 -46.5q164 0 328 73v-90q-66 -26 -149 -47.5t-191 -21.5q-146 0 -226.5 68.5t-80.5 193.5z" horiz-adv-x="913" unicode="г"/><glyph d="M102 354q0 184 74 355t196 265.5t269 94.5q217 0 283 -209h6q4 28 4 103q0 266 -72.5 395t-218.5 129q-53 0 -115.5 -19.5t-99.5 -42.5l-39 82q52 30 124 50t140 20q194 0 286.5 -148t92.5 -454q0 -181 -51 -376t-137.5 -337t-196.5 -212t-237 -70q-147 0 -227.5 100 t-80.5 274zM205 365q0 -295 221 -295q161 0 290.5 174t188.5 473q-70 266 -268 266q-116 0 -216.5 -87.5t-158 -231t-57.5 -299.5z" horiz-adv-x="1112" unicode="д"/><glyph d="M102 395q0 181 71 347t195.5 264t274.5 98q114 0 182 -61t68 -166q0 -181 -163.5 -276t-485.5 -95h-33q-6 -44 -6 -98q0 -165 74 -251.5t213 -86.5q132 0 276 73v-94q-140 -69 -299 -69q-173 0 -270 109.5t-97 305.5zM225 594h49q517 0 517 270q0 67 -43.5 110.5 t-116.5 43.5q-131 0 -243.5 -115.5t-162.5 -308.5z" horiz-adv-x="928" unicode="е"/><glyph d="M-51 -4l18 92q56 -18 127 -18q116 0 210 79t149 219.5t55 297.5q0 177 -59 262.5t-185 85.5q-52 0 -112 -10v88q72 12 120 12q334 0 334 -420q0 -50 -4 -82h164l104 485h95l-103 -485h162q28 149 96.5 262t170.5 176.5t233 63.5q77 0 135 -17l-19 -92q-57 19 -127 19 q-113 0 -206.5 -76t-150 -218.5t-56.5 -301.5q0 -177 59 -262.5t184 -85.5q53 0 113 10v-88q-72 -12 -121 -12q-334 0 -334 419q0 46 9 115h-166l-109 -514h-96l109 514h-158q-30 -160 -100 -280.5t-173 -187t-233 -66.5q-75 0 -135 16z" horiz-adv-x="1581" unicode="ж"/><glyph d="M-18 45v109q139 -86 290 -86q143 0 225.5 68.5t82.5 185.5q0 107 -64.5 154.5t-206.5 47.5h-84l21 92h90q146 0 226.5 59.5t80.5 170.5q0 78 -52 125t-140 47q-61 0 -117.5 -17t-130.5 -63l-41 80q83 50 153 68t156 18q130 0 202 -65t72 -181q0 -113 -66 -187t-187 -98 v-4q94 -20 142 -82.5t48 -158.5q0 -102 -51 -181.5t-145 -123t-222 -43.5q-86 0 -160 18.5t-122 46.5z" horiz-adv-x="799" unicode="з"/><glyph d="M109 227q0 60 22 170l150 690h100l-152 -698q-22 -106 -22 -158q0 -74 47.5 -117.5t138.5 -43.5q110 0 207.5 65.5t164 187t99.5 279.5l105 485h98l-231 -1087h-80l28 205h-6q-167 -221 -403 -221q-131 0 -198.5 62t-67.5 181z" horiz-adv-x="1143" unicode="и"/><glyph d="M109 227q0 60 22 170l150 690h100l-152 -698q-22 -106 -22 -158q0 -74 47.5 -117.5t138.5 -43.5q110 0 207.5 65.5t164 187t99.5 279.5l105 485h98l-231 -1087h-80l28 205h-6q-167 -221 -403 -221q-131 0 -198.5 62t-67.5 181zM434 1454q0 38 13 74h82q-8 -45 -8 -62 q0 -68 42.5 -103.5t143.5 -35.5q231 0 258 201h94q-17 -137 -110.5 -212t-243.5 -75q-140 0 -205.5 58t-65.5 155z" horiz-adv-x="1143" unicode="й"/><glyph d="M72 0l225 1087h98l-110 -524l573 524h146l-607 -534l404 -553h-127l-391 549l-113 -549h-98z" horiz-adv-x="932" unicode="к"/><glyph d="M-102 -2v90q29 -8 59 -8q74 0 122 38t94.5 131t121.5 312q84 249 146 348.5t143 143t200 43.5q81 0 172 -17l-231 -1079h-96l215 1006q-38 6 -74 6q-92 0 -152 -39.5t-112 -134t-123 -306.5q-86 -255 -141 -354t-121 -143.5t-162 -44.5q-37 0 -61 8z" horiz-adv-x="1028" unicode="л"/><glyph d="M45 0l231 1087h101l153 -798q27 -158 27 -170q26 55 62.5 117t529.5 851h117l-234 -1087h-88l197 930q-17 -32 -39 -70t-531 -860h-67l-146 723q-6 29 -17.5 99t-12.5 102l-193 -924h-90z" horiz-adv-x="1305" unicode="м"/><glyph d="M74 0l233 1087h96l-100 -479h625l104 479h101l-232 -1087h-102l110 516h-624l-111 -516h-100z" horiz-adv-x="1208" unicode="н"/><glyph d="M98 403q0 191 73 358t197 257t281 90q180 0 278.5 -108.5t98.5 -299.5q0 -197 -71.5 -368.5t-195.5 -261.5t-286 -90q-184 0 -279.5 109.5t-95.5 313.5zM201 408q0 -342 282 -342q127 0 225.5 77.5t157 228t58.5 330.5q0 154 -73 237t-210 83q-124 0 -223 -78.5 t-158 -225t-59 -310.5z" horiz-adv-x="1124" unicode="о"/><glyph d="M76 0l231 1087h82l-37 -221h6q164 238 416 238q130 0 195 -64t65 -184q0 -70 -24 -182l-148 -674h-98l149 692q21 92 21 156q0 80 -43.5 125t-134.5 45q-112 0 -210.5 -67t-166 -187.5t-103.5 -286.5l-102 -477h-98z" horiz-adv-x="1143" unicode="п"/><glyph d="M-33 -492l336 1579h82l-45 -274h6q91 153 195.5 224t228.5 71q135 0 208 -92.5t73 -282.5q0 -195 -72 -371t-197.5 -277t-283.5 -101q-230 0 -279 219h-4q-13 -72 -149 -695h-99zM266 346q0 -125 61.5 -200.5t168.5 -75.5q124 0 225 84t164 243.5t63 325.5 q0 295 -200 295q-87 0 -174 -58.5t-161.5 -167.5t-110.5 -237.5t-36 -208.5z" horiz-adv-x="1163" unicode="р"/><glyph d="M102 397q0 193 73.5 361.5t198.5 257t290 88.5q134 0 241 -43l-28 -90q-107 47 -218 47q-129 0 -232.5 -77t-162.5 -222t-59 -320q0 -158 73.5 -243.5t208.5 -85.5q71 0 131.5 13t131.5 46v-92q-116 -57 -273 -57q-174 0 -274.5 110.5t-100.5 306.5z" horiz-adv-x="887" unicode="с"/><glyph d="M72 0l231 1087h80l-33 -210h6q80 113 181.5 170t212.5 57q106 0 163 -67t60 -195h6q77 129 181 195.5t222 66.5q117 0 182.5 -61.5t65.5 -176.5q0 -29 -2.5 -56.5t-19.5 -119.5l-152 -690h-100l149 680q25 120 25 176q0 77 -43 119.5t-119 42.5q-157 0 -277.5 -137.5 t-168.5 -362.5l-109 -518h-102l147 674q25 125 25 162q0 182 -154 182q-106 0 -200 -67.5t-159 -188.5t-100 -287l-100 -475h-98z" horiz-adv-x="1751" unicode="т"/><glyph d="M-217 -379q71 -27 137 -27q80 0 147 49.5t130 164.5t100 184l-174 1095h100l82 -548q51 -351 55 -449h11q43 105 186 367l348 630h103l-713 -1290q-72 -127 -122.5 -178t-114 -81t-146.5 -30q-68 0 -129 21v92z" horiz-adv-x="920" unicode="у"/><glyph d="M98 438q0 185 72.5 333t208 231.5t315.5 84.5l99 469h94l-101 -466q371 -39 371 -437q0 -185 -77 -339t-212 -234t-315 -80l-107 -492h-90l105 492q-169 14 -266 129t-97 309zM201 449q0 -164 70.5 -258t207.5 -105l197 913q-143 -3 -248 -68.5t-166 -196.5t-61 -285z M571 86q142 0 249.5 66t171 201.5t63.5 291.5q0 165 -73 256t-214 98z" horiz-adv-x="1249" unicode="ф"/><glyph d="M-72 0l471 559l-245 528h100l207 -462l373 462h120l-448 -534l258 -553h-98l-224 483l-393 -483h-121z" horiz-adv-x="922" unicode="х"/><glyph d="M109 227q0 60 22 170l150 690h100l-152 -698q-22 -103 -22 -158q0 -74 47.5 -117.5t138.5 -43.5q110 0 207.5 65.5t164 187t99.5 279.5l105 485h98l-164 -765q-22 -104 -22 -170q0 -89 84 -89q23 0 63 7l-100 -435h-101l80 351q-67 13 -94 54.5t-27 119.5l2 51h-6 q-84 -113 -187.5 -170t-217.5 -57q-133 0 -200.5 62t-67.5 181z" horiz-adv-x="1169" unicode="ц"/><glyph d="M156 643q0 74 22 176l58 268h100q-69 -318 -75.5 -362t-6.5 -72q0 -74 44.5 -117.5t141.5 -43.5q163 0 290 135.5t175 369.5l19 90h98l-234 -1087h-102q50 229 75 345.5t70 281.5h-8q-161 -221 -401 -221q-128 0 -197 60t-69 177z" horiz-adv-x="1096" unicode="ч"/><glyph d="M117 221q0 30 2.5 57.5t19.5 118.5l152 690h100l-149 -679q-25 -120 -25 -177q0 -75 42.5 -118t119.5 -43q156 0 278 139t168 364l109 514h102l-147 -673q-25 -125 -25 -162q0 -92 38 -137t116 -45q105 0 199 67.5t159 188t101 286.5l102 475h96l-231 -1087h-80l33 211 h-6q-161 -227 -387 -227q-110 0 -167.5 67t-60.5 195h-6q-74 -126 -178.5 -194t-226.5 -68q-117 0 -182.5 61.5t-65.5 175.5z" horiz-adv-x="1751" unicode="ш"/><glyph d="M117 221q0 30 2.5 57.5t19.5 118.5l152 690h100l-149 -679q-25 -120 -25 -177q0 -75 42.5 -118t119.5 -43q156 0 278 139t168 364l109 514h102l-147 -673q-25 -125 -25 -162q0 -92 38 -137t116 -45q105 0 199 67.5t159 188t101 286.5l102 475h96l-164 -765 q-22 -104 -22 -170q0 -89 84 -89q23 0 63 7l-100 -435h-100l80 351q-68 13 -95 53.5t-27 115.5l3 56h-6q-161 -227 -387 -227q-110 0 -167.5 67t-60.5 195h-6q-74 -126 -178.5 -194t-226.5 -68q-117 0 -182.5 61.5t-65.5 175.5z" horiz-adv-x="1778" unicode="щ"/><glyph d="M82 1006l20 81h433l-109 -499l56 10q117 20 214 20q340 0 340 -280q0 -162 -111.5 -260t-303.5 -98q-163 0 -249.5 79t-86.5 232q0 98 30 248l101 467h-334zM383 307q0 -122 57 -179.5t189 -57.5q142 0 223.5 69t81.5 191q0 103 -64 152.5t-192 49.5q-78 0 -147 -10.5 t-123 -19.5q-25 -118 -25 -195z" horiz-adv-x="1139" unicode="ъ"/><glyph d="M141 291q0 93 31 248l119 548h100l-108 -499l56 10q117 20 214 20q340 0 340 -280q0 -162 -111.5 -260t-304.5 -98q-163 0 -249.5 79t-86.5 232zM240 307q0 -122 56.5 -179.5t188.5 -57.5q143 0 224.5 69t81.5 191q0 104 -64.5 153t-191.5 49q-78 0 -147.5 -10.5 t-123.5 -19.5q-24 -120 -24 -195zM983 0l234 1087h96l-232 -1087h-98z" horiz-adv-x="1389" unicode="ы"/><glyph d="M141 291q0 93 31 248l119 548h100l-108 -499l56 10q117 20 214 20q340 0 340 -280q0 -162 -111.5 -260t-304.5 -98q-163 0 -249.5 79t-86.5 232zM240 307q0 -122 56.5 -179.5t188.5 -57.5q143 0 224.5 69t81.5 191q0 104 -64.5 153t-191.5 49q-78 0 -147.5 -10.5 t-123.5 -19.5q-24 -120 -24 -195z" horiz-adv-x="995" unicode="ь"/><glyph d="M10 25v102q53 -27 118 -42t122 -15q176 0 287.5 115t152.5 341h-524l18 88h516q5 33 5 70q0 172 -68 255t-207 83q-48 0 -98 -11t-158 -53l-27 84q88 35 125.5 45.5t80 15.5t87.5 5q178 0 272.5 -105.5t94.5 -302.5q0 -208 -71.5 -377.5t-198 -256t-295.5 -86.5 q-56 0 -120 12t-112 33z" horiz-adv-x="905" unicode="э"/><glyph d="M74 0l233 1087h96l-100 -479h275q51 231 187.5 365.5t330.5 134.5q174 0 270 -105.5t96 -302.5q0 -203 -70.5 -374t-190.5 -258.5t-281 -87.5q-182 0 -273.5 108t-91.5 315q0 54 6 113h-276l-111 -516h-100zM657 408q0 -179 68 -260.5t205 -81.5q125 0 221.5 76.5 t152.5 229.5t56 330q0 158 -69.5 239t-203.5 81q-122 0 -218.5 -77t-154 -224t-57.5 -313z" horiz-adv-x="1542" unicode="ю"/><glyph d="M-37 -2v84q12 -4 39 -4q60 0 96.5 34.5t87.5 151.5q47 111 93.5 164.5t111.5 77.5q-104 20 -160.5 82t-56.5 162q0 105 48 180t132 116t189 41h420l-232 -1087h-98l104 481h-143q-83 0 -135.5 -19.5t-90.5 -63.5t-94 -169q-51 -114 -83.5 -154.5t-73.5 -61.5t-103 -21 q-33 0 -51 6zM276 754q0 -195 277 -195h201l94 447h-293q-130 0 -204.5 -67.5t-74.5 -184.5z" horiz-adv-x="1038" unicode="я"/><glyph d="M102 395q0 181 71 347t195.5 264t274.5 98q114 0 182 -61t68 -166q0 -181 -163.5 -276t-485.5 -95h-33q-6 -44 -6 -98q0 -165 74 -251.5t213 -86.5q132 0 276 73v-94q-140 -69 -299 -69q-173 0 -270 109.5t-97 305.5zM225 594h49q517 0 517 270q0 67 -43.5 110.5 t-116.5 43.5q-131 0 -243.5 -115.5t-162.5 -308.5zM459 1548v21h115q46 -129 164 -303v-25h-66q-50 52 -114 144.5t-99 162.5z" horiz-adv-x="928" unicode="ѐ"/><glyph d="M102 395q0 181 71 347t195.5 264t274.5 98q114 0 182 -61t68 -166q0 -181 -163.5 -276t-485.5 -95h-33q-6 -44 -6 -98q0 -165 74 -251.5t213 -86.5q132 0 276 73v-94q-140 -69 -299 -69q-173 0 -270 109.5t-97 305.5zM225 594h49q517 0 517 270q0 67 -43.5 110.5 t-116.5 43.5q-131 0 -243.5 -115.5t-162.5 -308.5zM448 1366q0 49 20.5 78t56.5 29q54 0 54 -64q0 -48 -21 -77t-55 -29q-55 0 -55 63zM792 1366q0 49 20.5 78t56.5 29q54 0 54 -64q0 -48 -21 -77t-55 -29q-55 0 -55 63z" horiz-adv-x="928" unicode="ё"/><glyph d="M76 0l272 1278h-145l18 82h146l39 196h98l-41 -196h373l-19 -82h-371q-51 -245 -67 -309t-27 -103h6q171 238 416 238q124 0 192 -63.5t68 -184.5q0 -70 -24 -182l-187 -858q-35 -162 -105 -235t-190 -73q-65 0 -112 19v92q58 -22 112 -22q87 0 131.5 54t69.5 175 l184 866q21 92 21 156q0 170 -178 170q-110 0 -209 -67t-166.5 -185.5t-104.5 -288.5l-102 -477h-98z" horiz-adv-x="1153" unicode="ђ"/><glyph d="M78 242q0 82 35.5 144.5t108.5 113t227 110.5q148 59 203 93t80.5 73t25.5 90q0 75 -49 112.5t-140 37.5q-58 0 -141 -19.5t-168 -52.5l-29 86q121 42 171 53t94.5 16t85.5 5q136 0 207 -58.5t71 -166.5q0 -111 -76.5 -189t-267.5 -147q-152 -56 -214.5 -95t-92 -87 t-29.5 -115q0 -87 55 -133.5t162 -46.5q164 0 328 73v-90q-66 -26 -149 -47.5t-191 -21.5q-146 0 -226.5 68.5t-80.5 193.5zM493 1241v21q66 51 150.5 142t129.5 165h137v-23q-51 -66 -157.5 -158.5t-192.5 -146.5h-67z" horiz-adv-x="913" unicode="ѓ"/><glyph d="M98 397q0 196 75 365.5t200 255.5t286 86q135 0 242 -43l-29 -90q-107 47 -217 47q-153 0 -268 -106.5t-164 -305.5h535l-21 -84h-528q-8 -54 -8 -123q0 -160 72.5 -244.5t209.5 -84.5q69 0 129.5 13t132.5 46v-92q-123 -57 -270 -57q-180 0 -278.5 111t-98.5 306z" horiz-adv-x="895" unicode="є"/><glyph d="M25 55v107q74 -46 153 -71t148 -25q138 0 211 57.5t73 163.5q0 42 -15.5 74t-50 61.5t-132.5 85.5q-148 80 -200 145.5t-52 159.5q0 128 98.5 209.5t259.5 81.5q75 0 158.5 -17.5t140.5 -46.5l-35 -88q-136 64 -264 64q-116 0 -186 -53t-70 -138q0 -55 17 -88t60.5 -68.5 t119.5 -76.5q114 -63 161.5 -103.5t70 -86.5t22.5 -107q0 -144 -103 -229.5t-280 -85.5q-173 0 -305 75z" horiz-adv-x="827" unicode="ѕ"/><glyph d="M76 0l231 1087h96l-229 -1087h-98zM350 1366q0 55 22 88t60 33q57 0 57 -72q0 -57 -22 -90t-57 -33q-29 0 -44.5 19.5t-15.5 54.5z" horiz-adv-x="475" unicode="і"/><glyph d="M76 0l231 1087h96l-229 -1087h-98zM196 1366q0 49 20.5 78t56.5 29q54 0 54 -64q0 -48 -21 -77t-55 -29q-55 0 -55 63zM540 1366q0 49 20.5 78t56.5 29q54 0 54 -64q0 -48 -21 -77t-55 -29q-55 0 -55 63z" horiz-adv-x="475" unicode="ї"/><glyph d="M-279 -381q47 -22 113 -22q82 0 128.5 51.5t72.5 177.5l266 1261h96l-268 -1271q-35 -165 -106.5 -236.5t-188.5 -71.5q-62 0 -113 19v92zM350 1366q0 55 22 88t60 33q57 0 57 -72q0 -57 -22 -90t-57 -33q-29 0 -44.5 19.5t-15.5 54.5z" horiz-adv-x="475" unicode="ј"/><glyph d="M-102 -2v90q32 -8 59 -8q75 0 123.5 38.5t95 133t119.5 309.5q42 122 82 221t92.5 168.5t125 107.5t179.5 38q65 0 144 -17l-97 -483q149 22 238 22q167 0 249.5 -68.5t82.5 -211.5q0 -160 -108.5 -259t-287.5 -99q-156 0 -237.5 80.5t-81.5 228.5q0 26 3.5 64t9.5 77.5 t112 577.5q-21 4 -51 4q-119 0 -198 -104t-169 -376q-84 -254 -139 -354t-122 -144t-163 -44q-32 0 -61 8zM776 303q0 -233 223 -233q134 0 211.5 70.5t77.5 189.5q0 101 -59.5 151.5t-188.5 50.5q-115 0 -235 -22q-29 -132 -29 -207z" horiz-adv-x="1493" unicode="љ"/><glyph d="M74 0l233 1087h96l-100 -479h483l105 479h100l-108 -499l56 10q117 20 214 20q340 0 340 -280q0 -162 -111.5 -260t-304.5 -98q-163 0 -249.5 79t-86.5 232q0 98 25 225h-481l-111 -516h-100zM840 307q0 -122 56.5 -179.5t188.5 -57.5q143 0 224.5 69t81.5 191 q0 104 -64.5 153t-191.5 49q-78 0 -147.5 -10.5t-123.5 -19.5q-24 -120 -24 -195z" horiz-adv-x="1595" unicode="њ"/><glyph d="M76 0l272 1282h-143l16 78h144l41 196h98l-41 -196h373l-17 -78h-373q-68 -315 -94 -408h10q93 124 191 177t215 53q129 0 197.5 -62t68.5 -182q0 -62 -22 -170l-150 -690h-102l153 698q21 101 21 156q0 81 -48 122.5t-134 41.5q-171 0 -298.5 -141.5t-179.5 -395.5 l-100 -481h-98z" horiz-adv-x="1153" unicode="ћ"/><glyph d="M72 0l225 1087h98l-110 -524l573 524h146l-607 -534l404 -553h-127l-391 549l-113 -549h-98zM592 1241v21q66 51 150.5 142t129.5 165h137v-23q-51 -66 -157.5 -158.5t-192.5 -146.5h-67z" horiz-adv-x="932" unicode="ќ"/><glyph d="M109 227q0 60 22 170l150 690h100l-152 -698q-22 -106 -22 -158q0 -74 47.5 -117.5t138.5 -43.5q110 0 207.5 65.5t164 187t99.5 279.5l105 485h98l-231 -1087h-80l28 205h-6q-167 -221 -403 -221q-131 0 -198.5 62t-67.5 181zM487 1548v21h115q46 -129 164 -303v-25h-66 q-50 52 -114 144.5t-99 162.5z" horiz-adv-x="1143" unicode="ѝ"/><glyph d="M-217 -379q71 -27 137 -27q80 0 147 49.5t130 164.5t100 184l-174 1095h100l82 -548q51 -351 55 -449h11q43 105 186 367l348 630h103l-713 -1290q-72 -127 -122.5 -178t-114 -81t-146.5 -30q-68 0 -129 21v92zM308 1454q0 38 13 74h82q-8 -45 -8 -62q0 -68 42.5 -103.5 t143.5 -35.5q231 0 258 201h94q-17 -137 -110.5 -212t-243.5 -75q-140 0 -205.5 58t-65.5 155z" horiz-adv-x="920" unicode="ў"/><glyph d="M109 227q0 60 22 170l150 690h100l-152 -698q-22 -106 -22 -158q0 -74 47.5 -117.5t138.5 -43.5q110 0 207.5 65.5t164 187t99.5 279.5l105 485h98l-231 -1087h-80l28 205h-6q-167 -221 -403 -221q-131 0 -198.5 62t-67.5 181zM352 -492l88 390l60 16h32l-90 -406h-90z" horiz-adv-x="1143" unicode="џ"/><glyph d="M170 471q0 260 85 504.5t218.5 376t310.5 131.5q134 0 234 -72l-57 -86q-90 64 -187 64q-93 0 -182.5 -70t-163 -208.5t-114 -308t-40.5 -321.5q0 -409 283 -409q122 0 193 75t106 234l53 244h109l-41 -201q-19 -89 -19 -143q0 -209 207 -209q116 0 209.5 76.5t167.5 224 t118 331.5t44 340q0 170 -61.5 257.5t-180.5 87.5q-59 0 -105.5 -16.5t-92.5 -41.5l-45 84q119 68 254 68q335 0 335 -443q0 -189 -54 -396t-145.5 -365.5t-201.5 -228.5t-250 -70q-112 0 -185 50t-95 142q-41 -87 -130.5 -139.5t-195.5 -52.5q-183 0 -282 122.5t-99 368.5z" horiz-adv-x="1876" unicode="Ѡ"/><glyph d="M115 1087h98l76 -677q24 -239 30 -312l340 480l-69 509h98l92 -655q28 -203 37 -334q179 179 293 418t178 571h98q-62 -355 -196.5 -619t-349.5 -468h-99l-61 457h-4l-320 -457h-114z" horiz-adv-x="1352" unicode="ѡ"/><glyph d="M178 1161l21 94h313l68 301h104l-68 -301h410l-18 -94h-412l-76 -350h232q187 0 287 -89.5t100 -256.5q0 -223 -140 -344t-391 -121h-362l246 1161h-314zM367 90h239q205 0 315.5 92t110.5 277q0 134 -74.5 198t-224.5 64h-231z" horiz-adv-x="1262" unicode="Ѣ"/><glyph d="M72 1006l16 81h227l52 232h100l-51 -232h284l-18 -81h-283l-90 -418l56 10q117 20 215 20q340 0 340 -280q0 -162 -111.5 -260t-304.5 -98q-163 0 -249.5 79t-86.5 232q0 105 31 248l100 467h-227zM266 307q0 -122 57 -179.5t189 -57.5q144 0 224.5 69.5t80.5 190.5 q0 103 -64 152.5t-192 49.5q-77 0 -146.5 -10.5t-123.5 -19.5q-25 -118 -25 -195z" horiz-adv-x="1022" unicode="ѣ"/><glyph d="M102 0l310 1462h102l-139 -649h393q48 202 155 353t262.5 234t340.5 83q177 0 307 -68l-45 -90q-111 64 -262 64q-236 0 -408.5 -153.5t-243.5 -422.5h678l-18 -94h-678q-7 -34 -11.5 -91t-4.5 -89q0 -226 111.5 -346.5t316.5 -120.5q139 0 303 51v-94q-156 -49 -316 -49 q-252 0 -386 143t-134 412q0 96 15 184h-396l-149 -719h-103z" horiz-adv-x="1735" unicode="Ѥ"/><glyph d="M74 0l233 1087h96l-100 -481h279q52 234 195 366t343 132q135 0 242 -43l-29 -90q-107 47 -217 47q-153 0 -268 -106.5t-164 -305.5h535l-21 -84h-528q-8 -54 -8 -123q0 -160 72.5 -244.5t209.5 -84.5q69 0 129.5 13t132.5 46v-92q-123 -57 -270 -57q-180 0 -278.5 111 t-98.5 306q0 74 8 125h-280l-113 -522h-100z" horiz-adv-x="1356" unicode="ѥ"/><glyph d="M-111 0l863 1462h69l248 -1462h-96l-125 725h-168l-152 -725h-94l156 725h-166l-426 -725h-109zM475 813h359l-35 209q-36 204 -39 293h-4q-15 -36 -57 -115.5t-86 -154t-138 -232.5z" horiz-adv-x="1159" unicode="Ѧ"/><glyph d="M-70 0l652 1087h98l188 -1087h-98l-82 510h-137l-109 -510h-94l115 510h-125l-309 -510h-99zM385 590h291q-52 305 -60 399h-6q-72 -144 -225 -399z" horiz-adv-x="1001" unicode="ѧ"/><glyph d="M102 0l310 1462h102l-139 -649h481l383 649h70l247 -1462h-96l-125 725h-168l-151 -725h-94l155 725h-166l-426 -725h-108l426 725h-447l-151 -725h-103zM963 813h358l-35 209q-36 204 -39 293h-4q-15 -37 -59 -120t-99 -175z" horiz-adv-x="1647" unicode="Ѩ"/><glyph d="M76 0l233 1087h94l-106 -497h326l299 497h98l188 -1087h-98l-82 510h-137l-109 -510h-94l115 510h-125l-309 -510h-99l305 510h-296l-109 -510h-94zM725 590h291q-52 305 -60 399h-6q-72 -144 -225 -399z" horiz-adv-x="1341" unicode="ѩ"/><glyph d="M-61 0l247 512q70 143 124 202t128 89t178 33l-276 536l18 90h1018l-20 -86l-522 -540q109 -7 173.5 -44.5t97 -106.5t42.5 -224l31 -461h-105l-31 471q-8 120 -34 174.5t-79 79.5t-147 25h-16l-166 -750h-98l160 750h-19q-98 0 -157.5 -22.5t-106 -77t-107.5 -181.5 l-225 -469h-108zM451 1372l270 -536l502 536h-772z" horiz-adv-x="1315" unicode="Ѫ"/><glyph d="M-98 0l202 367q57 105 110.5 156t127 79t176.5 35l-258 381l10 69h895l-12 -69l-418 -381q98 -11 159.5 -45t96.5 -95t53 -178l54 -319h-99l-51 311q-23 140 -84.5 191t-208.5 53l-118 -555h-95l119 555q-113 -3 -170.5 -22.5t-103 -63.5t-90.5 -125l-187 -344h-108z M377 1006l246 -369l391 369h-637z" horiz-adv-x="1247" unicode="ѫ"/><glyph d="M102 0l310 1462h102l-133 -626h745l-274 536l18 90h1018l-20 -86l-522 -540q109 -7 173.5 -44.5t97 -106.5t42.5 -224l31 -461h-105l-31 471q-8 120 -34 174.5t-79 79.5t-147 25h-16l-166 -750h-98l160 750h-19q-98 0 -157.5 -22.5t-106 -77t-107.5 -181.5l-225 -469 h-108l247 512q41 85 80.5 139.5t93.5 89.5h-512l-155 -741h-103zM963 1372l270 -536l502 536h-772z" horiz-adv-x="1827" unicode="Ѭ"/><glyph d="M74 0l233 1087h96l-94 -450h576l-258 381l10 69h895l-12 -69l-418 -381q97 -11 158 -45t96 -94t55 -179l53 -319h-98l-51 311q-23 140 -84.5 191t-208.5 53l-119 -555h-94l119 555h-13q-134 0 -210 -45t-142 -166l-186 -344h-109l203 367q35 63 68.5 105t81.5 73h-330 l-117 -545h-100zM743 1006l246 -369l391 369h-637z" horiz-adv-x="1614" unicode="ѭ"/><glyph d="M-84 -190q0 79 39.5 129t115 78t238.5 42q188 16 287 57.5t149 117t50 188.5q0 289 -373 289h-182l18 96h178q131 0 237 45t158 123.5t52 183.5q0 114 -68 176t-190 62q-95 0 -178 -33.5t-162 -85.5l-54 76q88 60 177.5 91.5t201.5 37.5q-30 59 -77 127.5t-80 99.5v21h94 q62 -72 137 -205q64 94 98 130t67.5 55.5t68.5 19.5q34 0 63 -13v-78q-38 7 -53 7q-37 0 -86.5 -45t-102.5 -127q117 -23 182.5 -102.5t65.5 -203.5q0 -160 -91 -263.5t-267 -145.5v-4q128 -23 205 -111t77 -219q0 -206 -147.5 -324t-441.5 -139q-167 -11 -231 -42.5 t-64 -96.5q0 -52 40.5 -81.5t108.5 -29.5l75 3q190 12 267 12q153 0 225 -37v-111q-94 47 -249 47l-78 -2q-180 -10 -246 -10q-112 0 -183 53.5t-71 141.5z" horiz-adv-x="1020" unicode="Ѯ"/><glyph d="M-113 -172q0 69 34.5 115t106 76.5t228.5 58.5q198 34 271 91.5t73 168.5q0 97 -65 141.5t-205 44.5h-84l20 92h90q149 0 228.5 61.5t79.5 168.5q0 78 -52.5 125t-140.5 47q-61 0 -117.5 -17t-130.5 -63l-41 80q118 73 258 86q-32 64 -79.5 130.5t-79.5 96.5v21h94 q61 -69 137 -205q64 94 98 130t67.5 55.5t67.5 19.5q35 0 64 -13v-77q-33 6 -53 6q-38 0 -87 -44.5t-102 -125.5q96 -17 147.5 -82t51.5 -158q0 -113 -65.5 -187t-188.5 -98v-4q89 -18 139.5 -76.5t50.5 -150.5q0 -103 -45.5 -172t-137 -112t-265.5 -72q-160 -27 -213 -60 t-53 -92q0 -94 143 -94q56 0 224 10l69 2q77 0 127 -10t92 -33v-96q-92 47 -229 47l-66 -2q-155 -10 -229 -10q-118 0 -175 48t-57 132z" horiz-adv-x="834" unicode="ѯ"/><glyph d="M209 848q0 102 29 239l79 375h103q-55 -258 -85.5 -399.5t-25.5 -206.5q0 -160 86 -236.5t267 -76.5h12l194 919h103l-195 -919h10q235 0 360.5 105t178.5 351l100 463h101l-105 -485q-56 -275 -214.5 -398.5t-436.5 -123.5h-12l-96 -455h-103l96 455h-8 q-212 0 -325 100.5t-113 292.5z" horiz-adv-x="1419" unicode="Ѱ"/><glyph d="M154 391q0 96 30 238l99 458h102l-98 -454q-31 -139 -31 -232q0 -293 283 -323q118 547 184.5 851.5t132.5 626.5h94q-237 -1094 -317 -1478q286 17 418.5 257.5t132.5 751.5h102q0 -391 -74.5 -624t-224 -347.5t-373.5 -123.5l-102 -484h-94l102 484q-180 17 -273 120.5 t-93 278.5z" horiz-adv-x="1364" unicode="ѱ"/><glyph d="M172 559q0 256 91.5 472.5t254.5 334t375 117.5q248 0 379 -148.5t131 -423.5q0 -189 -53.5 -370t-145 -304.5t-222 -190t-290.5 -66.5q-253 0 -386.5 150t-133.5 429zM276 573q0 -246 110 -373.5t319 -127.5q223 0 371.5 162.5t199.5 459.5h-993q-7 -65 -7 -121z M297 786h993l4 115q0 244 -107 366t-308 122q-221 0 -376 -162t-206 -441z" horiz-adv-x="1464" unicode="Ѳ"/><glyph d="M98 403q0 191 73 358t197 257t281 90q180 0 278.5 -108.5t98.5 -299.5q0 -197 -71.5 -368.5t-195.5 -261.5t-286 -90q-184 0 -279.5 109.5t-95.5 313.5zM201 408q0 -342 282 -342q160 0 271 119.5t151 330.5h-698q-6 -56 -6 -108zM221 600h697q6 52 6 102q0 154 -73 237 t-210 83q-151 0 -263 -114.5t-157 -307.5z" horiz-adv-x="1124" unicode="ѳ"/><glyph d="M201 1462h100l117 -950q27 -228 35 -365h4q18 47 61.5 143t417.5 888q60 126 107.5 184t104.5 85.5t132 27.5q43 0 72 -7v-84q-29 9 -72 9q-77 0 -132 -52t-130 -206l-547 -1135h-88z" horiz-adv-x="1096" unicode="Ѵ"/><glyph d="M104 1087h101l108 -735q26 -178 33 -254h6l63 157l238 556q53 125 94.5 180.5t92 84t118.5 28.5q48 0 72 -10v-78q-28 10 -72 10q-60 0 -107 -49.5t-106 -185.5l-356 -791h-113z" horiz-adv-x="877" unicode="ѵ"/><glyph d="M201 1462h100l117 -950q27 -228 35 -365h4q18 47 61.5 143t417.5 888q60 126 107.5 184t104.5 85.5t132 27.5q43 0 72 -7v-84q-29 9 -72 9q-77 0 -132 -52t-130 -206l-547 -1135h-88zM313 1886v21h125q49 -137 164 -303v-25h-74q-47 47 -116 147t-99 160zM645 1886v21 h125q47 -132 163 -303v-25h-73q-47 47 -116 147t-99 160z" horiz-adv-x="1096" unicode="Ѷ"/><glyph d="M104 1087h101l108 -735q26 -178 33 -254h6l63 157l238 556q53 125 94.5 180.5t92 84t118.5 28.5q48 0 72 -10v-78q-28 10 -72 10q-60 0 -107 -49.5t-106 -185.5l-356 -791h-113zM111 1548v21h125q49 -137 164 -303v-25h-74q-47 47 -116 147t-99 160zM443 1548v21h125 q47 -132 163 -303v-25h-73q-47 47 -116 147t-99 160z" horiz-adv-x="877" unicode="ѷ"/><glyph d="M172 559q0 262 93 477.5t255 331t373 115.5q247 0 378.5 -148.5t131.5 -423.5q0 -255 -94 -481.5t-252 -338t-365 -111.5q-250 0 -385 149t-135 430zM276 573q0 -245 109.5 -373t319.5 -128q169 0 300 98.5t210 300t79 430.5q0 240 -104.5 364t-310.5 124 q-174 0 -308.5 -101t-214.5 -298t-80 -417zM1253 -379q71 -27 137 -27q80 0 147 49.5t130 164.5t100 184l-174 1095h100l82 -548q51 -351 55 -449h11q43 105 186 367l348 630h103l-713 -1290q-72 -127 -122.5 -178t-114 -81t-146.5 -30q-68 0 -129 21v92z" horiz-adv-x="2390" unicode="Ѹ"/><glyph d="M838 -379q71 -27 137 -27q80 0 147 49.5t130 164.5t100 184l-174 1095h100l82 -548q51 -351 55 -449h11q43 105 186 367l348 630h103l-713 -1290q-72 -127 -122.5 -178t-114 -81t-146.5 -30q-68 0 -129 21v92zM100 403q0 191 73 358t197 257t281 90q180 0 278.5 -108.5 t98.5 -299.5q0 -197 -71.5 -368.5t-195.5 -261.5t-286 -90q-184 0 -279.5 109.5t-95.5 313.5zM203 408q0 -342 282 -342q127 0 225.5 77.5t157 228t58.5 330.5q0 154 -73 237t-210 83q-124 0 -223 -78.5t-158 -225t-59 -310.5z" horiz-adv-x="1974" unicode="ѹ"/><glyph d="M172 559q0 249 84.5 458t234.5 328.5t345 135.5q12 37 39.5 56t62.5 19q38 0 67.5 -22.5t38.5 -69.5q175 -41 267 -182.5t92 -370.5q0 -241 -84.5 -458t-229.5 -335t-331 -134q-11 -39 -39.5 -58.5t-63.5 -19.5q-38 0 -66.5 22.5t-37.5 65.5q-185 38 -282 183.5 t-97 381.5zM276 573q0 -196 71.5 -319t209.5 -164q12 34 38 52t60 18q38 0 67 -21.5t40 -64.5q155 17 272.5 120.5t188.5 298t71 408.5q0 378 -258 465q-28 -63 -98 -63q-82 0 -104 83q-161 -12 -285 -116t-198.5 -295.5t-74.5 -401.5z" horiz-adv-x="1464" unicode="Ѻ"/><glyph d="M98 403q0 178 62.5 334.5t175 253.5t258.5 113q23 67 90 67q35 0 60.5 -20.5t33.5 -60.5q121 -36 184.5 -136t63.5 -254q0 -185 -62.5 -347t-169 -255.5t-247.5 -111.5q-23 -72 -92 -72q-34 0 -59.5 20t-33.5 58q-134 31 -199 137.5t-65 273.5zM201 408q0 -265 166 -324 q24 59 88 59q74 0 92 -73q113 20 196 104t132 227t49 301q0 107 -38 183.5t-116 111.5q-24 -55 -86 -55q-34 0 -59 19.5t-33 56.5q-113 -15 -201 -98.5t-139 -222t-51 -289.5z" horiz-adv-x="1124" unicode="ѻ"/><glyph d="M170 471q0 260 85 504.5t218.5 376t310.5 131.5q134 0 234 -72l-57 -86q-90 64 -187 64q-93 0 -182.5 -70t-163 -208.5t-114 -308t-40.5 -321.5q0 -205 78 -307t228 -102q85 0 156.5 27t119.5 61q53 -38 122.5 -63t137.5 -25q142 0 243.5 71.5t178 217t121.5 332 t45 351.5q0 170 -61.5 257.5t-180.5 87.5q-59 0 -105.5 -16.5t-92.5 -41.5l-45 84q119 68 254 68q335 0 335 -443q0 -278 -98 -545t-239.5 -391t-346.5 -124q-146 0 -274 73q-98 -43 -160 -58t-119 -15q-193 0 -297 125t-104 366zM911 1862q22 94 86.5 144t159.5 50 q48 0 99 -11.5t143 -51.5q75 -34 116 -42.5t84 -8.5h21l-16 -82h-17q-75 0 -134 20t-122 51q-42 20 -81.5 33.5t-86.5 13.5q-62 0 -102.5 -30.5t-50.5 -85.5h-99zM1110 1585l10 62q43 10 71 35t28 47q0 21 -14 28.5t-36 18.5q-14 8 -29.5 20t-15.5 35q0 31 21.5 47t56.5 16 q51 0 79 -27.5t28 -76.5q0 -74 -56 -130.5t-143 -74.5z" horiz-adv-x="1876" unicode="Ѽ"/><glyph d="M109 362q0 194 68 376t170 274t233 92q101 0 180 -62l-55 -84q-67 54 -134 54q-80 0 -161 -75t-141 -243.5t-60 -322.5q0 -299 225 -299q62 0 118 20t93 45q39 -29 93 -47t104 -18q130 0 217 76t152 261.5t65 360.5q0 115 -42.5 178.5t-127.5 63.5q-76 0 -158 -47l-43 82 q109 57 207 57q264 0 264 -334q0 -216 -77 -419.5t-189 -287t-262 -83.5q-111 0 -209 53q-112 -53 -211 -53q-152 0 -235.5 93.5t-83.5 288.5zM606 1556q22 94 86.5 144.5t159.5 50.5q47 0 98.5 -11.5t143.5 -51.5q76 -35 114 -43.5t86 -8.5h21l-17 -82h-16q-55 0 -110 14 t-146 58q-42 20 -81.5 33.5t-86.5 13.5q-62 0 -102.5 -30.5t-50.5 -86.5h-99zM805 1280l10 61q40 10 69 35.5t29 46.5q0 25 -29 38q-8 4 -18 8.5t-28.5 18.5t-18.5 38q0 31 21.5 47t56.5 16q51 0 79 -27.5t28 -76.5q0 -74 -56 -130.5t-143 -74.5z" horiz-adv-x="1475" unicode="ѽ"/><glyph d="M170 471q0 260 85 504.5t218.5 376t310.5 131.5q134 0 234 -72l-57 -86q-90 64 -187 64q-93 0 -182.5 -70t-163 -208.5t-114 -308t-40.5 -321.5q0 -409 283 -409q122 0 193 75t106 234l53 244h109l-41 -201q-19 -89 -19 -143q0 -209 207 -209q116 0 209.5 76.5t167.5 224 t118 331.5t44 340q0 170 -61.5 257.5t-180.5 87.5q-59 0 -105.5 -16.5t-92.5 -41.5l-45 84q119 68 254 68q335 0 335 -443q0 -189 -54 -396t-145.5 -365.5t-201.5 -228.5t-250 -70q-112 0 -185 50t-95 142q-41 -87 -130.5 -139.5t-195.5 -52.5q-183 0 -282 122.5t-99 368.5z M748 1761l6 27h819l-6 -27l-115 -164h-12l-29 117h-203l-80 -117h-12l-31 117h-202l-78 -117h-12z" horiz-adv-x="1876" unicode="Ѿ"/><glyph d="M115 1087h98l76 -677q24 -239 30 -312l340 480l-69 509h98l92 -655q28 -203 37 -334q179 179 293 418t178 571h98q-62 -355 -196.5 -619t-349.5 -468h-99l-61 457h-4l-320 -457h-114zM391 1430l6 26h820l-7 -26l-114 -164h-13l-28 116h-203l-80 -116h-12l-31 116h-203 l-77 -116h-13z" horiz-adv-x="1352" unicode="ѿ"/><glyph d="M170 535q0 266 104.5 488t284.5 341t402 119q177 0 307 -68l-45 -90q-128 64 -262 64q-197 0 -351.5 -104.5t-245 -304.5t-90.5 -441q0 -221 108.5 -344t297.5 -123q54 0 84 8l-125 -572h-102l102 474q-222 9 -345.5 154.5t-123.5 398.5z" horiz-adv-x="1169" unicode="Ҁ"/><glyph d="M102 397q0 193 75.5 363t200.5 257t286 87q134 0 241 -43l-28 -90q-107 47 -218 47q-131 0 -235 -77.5t-161.5 -220.5t-57.5 -321q0 -154 74 -241.5t208 -87.5q88 0 164 36l-129 -598h-98l100 469l-31 -1q-189 0 -290 111t-101 310z" horiz-adv-x="887" unicode="ҁ"/><glyph d="M168 561l39 64l285 -164l231 403l-283 164l37 68l285 -164l182 309l70 -37l-183 -315l287 -164l-41 -66l-282 164l-234 -403l285 -166l-39 -66l-285 164l-180 -313l-72 41l181 315z" horiz-adv-x="1247" unicode="҂"/><glyph d="M373 1257q0 44 29 69.5t87 25.5h443q5 43 26 64.5t64 21.5q34 0 54 -17t20 -51q0 -87 -121 -92h-443q-6 -86 -88 -86q-34 0 -52.5 18t-18.5 47z" horiz-adv-x="1174" unicode="҃"/><glyph d="M403 1262l17 81h14q52 0 112.5 11.5t160.5 46.5q58 20 116.5 36.5t124.5 16.5q88 0 140.5 -38t52.5 -105q0 -31 -4 -47h-93q5 13 5 30q0 86 -105 86q-44 0 -93.5 -12.5t-148.5 -48.5q-164 -57 -278 -57h-21z" horiz-adv-x="1214" unicode="҄"/><glyph d="M655 1464q0 44 24 72.5t62 28.5q80 0 80 -62q0 -39 -37 -51q-43 -17 -43 -37q0 -57 119 -94v-66q-106 34 -155.5 89t-49.5 120z" horiz-adv-x="1214" unicode="҅"/><glyph d="M686 1255v66q119 37 119 94q0 20 -43 37q-20 10 -26 18t-8.5 16t-2.5 17q0 62 80 62q38 0 62 -28.5t24 -72.5q0 -75 -53 -128.5t-152 -80.5z" horiz-adv-x="1214" unicode="҆"/><glyph d="M41 459q5 90 55.5 142t153.5 52q92 0 149.5 -51t63.5 -143h-80q-5 45 -35 66.5t-98 21.5q-78 0 -103 -19.5t-30 -68.5h-76zM219 -41q5 90 55.5 142.5t153.5 52.5q92 0 149.5 -51t63.5 -144h-80q-5 45 -35 66.5t-98 21.5q-78 0 -103 -19.5t-30 -68.5h-76zM219 946 q5 90 55.5 142.5t153.5 52.5q92 0 149.5 -51t63.5 -144h-80q-5 45 -35 66.5t-98 21.5q-78 0 -103 -19.5t-30 -68.5h-76zM793 -319q5 89 55 141.5t153 52.5q92 0 149.5 -51t63.5 -143h-79q-5 44 -35 66t-99 22q-78 0 -103 -20.5t-30 -67.5h-75zM793 1231q11 194 208 194 q93 0 149.5 -50.5t63.5 -143.5h-79q-5 44 -35 66t-99 22q-78 0 -103 -20.5t-30 -67.5h-75zM1372 -41q5 90 55.5 142.5t153.5 52.5q92 0 149.5 -51t63.5 -144h-80q-5 45 -35 66.5t-98 21.5q-78 0 -103 -19.5t-30 -68.5h-76zM1372 946q5 90 55.5 142.5t153.5 52.5 q92 0 149.5 -51t63.5 -144h-80q-5 45 -35 66.5t-98 21.5q-78 0 -103 -19.5t-30 -68.5h-76zM1563 459q11 194 209 194q92 0 149.5 -52t63.5 -142h-80q-5 44 -35 66t-98 22q-78 0 -103.5 -20t-30.5 -68h-75z" horiz-adv-x="2025" unicode="҈"/><glyph d="M41 565v97q221 -53 350 -70v-139l-14 -11q-66 17 -161.5 52t-174.5 71zM238 -55q177 110 297 198l98 -98l-2 -16q-155 -89 -324 -152zM324 1202l67 70q123 -198 199 -297l-98 -98l-17 2q-82 140 -151 323zM870 -385q53 221 70 350h139l11 -14q-17 -66 -52 -161.5 t-71 -174.5h-97zM870 1155q19 71 55.5 171t67.5 165h97q-52 -220 -70 -350h-139zM1325 1018l2 16q67 39 162 83t162 69l69 -68q-177 -110 -297 -198zM1366 86l98 98l17 -2q39 -69 84 -166t67 -157l-67 -70q-31 50 -96 147.5t-103 149.5zM1567 512v139l14 11 q71 -19 171 -55.5t165 -67.5v-97q-221 53 -350 70z" horiz-adv-x="1958" unicode="҉"/><glyph d="M102 0l310 1462h102l-186 -878q-41 -197 -95 -406l1035 1284h110l-291 -1368h164l-217 -450h-114l208 356h-161l184 864q54 261 102 443l-1050 -1307h-101zM627 1792q0 40 12 74h82q-8 -45 -8 -62q0 -68 42.5 -103.5t143.5 -35.5q231 0 258 201h94q-17 -137 -110.5 -212 t-243.5 -75q-133 0 -201.5 55t-68.5 158z" horiz-adv-x="1430" unicode="Ҋ"/><glyph d="M109 227q0 60 22 170l150 690h100l-152 -698q-22 -106 -22 -162q0 -74 47.5 -115.5t138.5 -41.5q110 0 207.5 65.5t164 187t99.5 279.5l105 485h98l-215 -1007h164l-201 -447h-117l207 367h-149l28 205h-6q-167 -221 -403 -221q-132 0 -199 62t-67 181zM434 1456 q0 40 12 74h82q-8 -45 -8 -62q0 -68 42.5 -103.5t144.5 -35.5q231 0 258 201h94q-17 -136 -110.5 -211.5t-243.5 -75.5q-140 0 -205.5 58t-65.5 155z" horiz-adv-x="1169" unicode="ҋ"/><glyph d="M102 0l246 1169h-162l21 95h162l43 198h104l-43 -198h328l-19 -95h-329l-76 -358h231q187 0 287 -89.5t100 -256.5q0 -222 -139 -343.5t-391 -121.5h-363zM223 90h240q204 0 315 92t111 277q0 134 -74.5 198t-224.5 64h-232z" horiz-adv-x="1118" unicode="Ҍ"/><glyph d="M141 291q0 93 31 248l141 663h-166l17 82h166l61 272h101l-62 -272h244l-19 -82h-241l-131 -614l56 10q117 20 214 20q340 0 340 -280q0 -162 -111.5 -260t-304.5 -98q-163 0 -249.5 79t-86.5 232zM240 307q0 -122 56.5 -179.5t188.5 -57.5q143 0 224.5 69t81.5 191 q0 104 -64.5 153t-191.5 49q-78 0 -147.5 -10.5t-123.5 -19.5q-24 -120 -24 -195z" horiz-adv-x="995" unicode="ҍ"/><glyph d="M102 0l310 1462h315q202 0 310 -92.5t108 -267.5q0 -328 -264 -440l98 -201l-84 -41l-104 211q-110 -29 -256 -29h-201l-129 -602h-103zM350 694h191q123 0 209 21l-95 196l86 41l99 -207q102 47 149 134t47 217q0 274 -329 274h-211z" horiz-adv-x="1145" unicode="Ҏ"/><glyph d="M-33 -492l336 1579h82l-45 -274h6q91 153 195.5 224t228.5 71q135 0 208 -92.5t73 -282.5q0 -210 -83 -396t-225 -280l103 -209l-84 -41l-100 207q-78 -30 -164 -30q-230 0 -279 219h-4l-37 -180l-112 -515h-99zM266 346q0 -125 61.5 -200.5t168.5 -75.5q68 0 127 24 l-101 205l86 41l97 -201q108 82 175.5 247t67.5 337q0 295 -200 295q-87 0 -174 -58.5t-161.5 -167.5t-110.5 -237.5t-36 -208.5z" horiz-adv-x="1149" unicode="ҏ"/><glyph d="M102 0l310 1462h602l65 293h105l-86 -387h-602l-291 -1368h-103z" horiz-adv-x="946" unicode="Ґ"/><glyph d="M72 0l227 1087h408l69 326h96l-88 -407h-403l-211 -1006h-98z" horiz-adv-x="698" unicode="ґ"/><glyph d="M102 0l146 684h-146l19 82h143l148 696h708l-20 -94h-604l-129 -602h335l-18 -82h-334l-145 -684h-103z" horiz-adv-x="932" unicode="Ғ"/><glyph d="M23 514l18 80h154l104 493h504l-19 -81h-403l-86 -412h274l-18 -80h-275l-106 -514h-98l106 514h-155z" horiz-adv-x="698" unicode="ғ"/><glyph d="M86 -367q119 -51 238 -51q169 0 295.5 81t200 247t73.5 369q0 201 -108.5 313.5t-299.5 112.5q-62 0 -131 -9l-145 -696h-107l310 1462h708l-20 -94h-604l-123 -582q68 11 129 11q236 0 365.5 -134.5t129.5 -377.5q0 -237 -87 -424.5t-238.5 -280t-356.5 -92.5 q-134 0 -229 41v104z" horiz-adv-x="1167" unicode="Ҕ"/><glyph d="M72 0l227 1087h504l-19 -81h-403l-82 -390q57 13 133 13q112 0 195.5 -47.5t131.5 -141t48 -229.5q0 -202 -67.5 -370.5t-184.5 -253.5t-268 -85q-102 0 -178 37v99q88 -48 186 -48q122 0 215 79.5t144 222.5t51 317q0 154 -75 242t-208 88q-79 0 -143 -17l-109 -522h-98 z" horiz-adv-x="918" unicode="ҕ"/><glyph d="M-88 0l729 760l-424 702h125l414 -704l147 704h103l-152 -706l692 706h140l-717 -725l379 -643h149l-98 -450h-105l80 356h-94l-430 737l-154 -737h-102l158 739l-699 -739h-141z" horiz-adv-x="1591" unicode="Җ"/><glyph d="M-51 -4l18 92q56 -18 127 -18q116 0 210 79t149 219.5t55 297.5q0 177 -59 262.5t-185 85.5q-52 0 -112 -10v88q72 12 120 12q334 0 334 -420q0 -50 -4 -82h164l104 485h95l-103 -485h162q28 149 96.5 262t170.5 176.5t233 63.5q77 0 135 -17l-19 -92q-57 19 -127 19 q-113 0 -206.5 -76t-150 -218.5t-56.5 -301.5q0 -177 59 -262.5t184 -85.5q47 0 146 22l-105 -457h-100l78 347l-13 -2h-14q-334 0 -334 419q0 46 9 115h-166l-109 -514h-96l109 514h-158q-30 -160 -100 -280.5t-173 -187t-233 -66.5q-75 0 -135 16z" horiz-adv-x="1634" unicode="җ"/><glyph d="M-31 59v117q183 -106 402 -106q204 0 314 93.5t110 260.5q0 287 -373 287h-182l18 96h178q131 0 237 45t158 123.5t52 183.5q0 114 -67 176t-191 62q-168 0 -340 -119l-54 76q190 129 406 129q165 0 257.5 -82t92.5 -232q0 -160 -91 -263.5t-267 -145.5v-4 q130 -23 199 -110.5t69 -227.5q0 -130 -67.5 -232.5t-187 -154t-284.5 -51.5q-211 0 -389 79zM187 -399l14 69q27 -10 68 -10q118 0 118 160q0 100 -32 180h84q43 -115 43 -190q0 -102 -54.5 -163t-158.5 -61q-50 0 -82 15z" horiz-adv-x="1020" unicode="Ҙ"/><glyph d="M-18 45v109q139 -86 290 -86q143 0 225.5 68.5t82.5 185.5q0 107 -64.5 154.5t-206.5 47.5h-84l21 92h90q146 0 226.5 59.5t80.5 170.5q0 78 -52 125t-140 47q-61 0 -117.5 -17t-130.5 -63l-41 80q83 50 153 68t156 18q130 0 202 -65t72 -181q0 -113 -66 -187t-187 -98 v-4q94 -20 142 -82.5t48 -158.5q0 -102 -51 -181.5t-145 -123t-222 -43.5q-86 0 -160 18.5t-122 46.5zM97 -399l14 69q27 -10 68 -10q118 0 118 160q0 100 -32 180h84q43 -115 43 -190q0 -102 -54.5 -163t-158.5 -61q-50 0 -82 15z" horiz-adv-x="799" unicode="ҙ"/><glyph d="M102 0l310 1462h102l-158 -727l787 727h143l-809 -733l490 -635h161l-98 -450h-104l80 356h-95l-555 729l-151 -729h-103z" horiz-adv-x="1192" unicode="Қ"/><glyph d="M72 0l225 1087h98l-110 -524l573 524h146l-607 -534l344 -473h123l-102 -445h-100l81 365h-69l-391 549l-113 -549h-98z" horiz-adv-x="969" unicode="қ"/><glyph d="M102 0l310 1462h102l-156 -712l172 147l54 248h86l-33 -156l532 473h138l-699 -610l371 -852h-111l-297 684l-67 -315h-86l86 401l-168 -135l-131 -635h-103z" horiz-adv-x="1106" unicode="Ҝ"/><glyph d="M72 0l225 1087h98l-110 -524l166 152l63 299h86l-43 -203l301 276h146l-478 -421l-49 -226l324 -440h-127l-223 313l-48 -223h-86l68 316l-102 143l-113 -549h-98z" horiz-adv-x="854" unicode="ҝ"/><glyph d="M102 0l246 1165h-164l19 82h164l45 215h102l-47 -215h223l-18 -82h-223l-93 -426l133 121l680 602h138l-699 -610l371 -852h-111l-342 788l-190 -153l-131 -635h-103z" horiz-adv-x="1079" unicode="Ҟ"/><glyph d="M76 0l270 1282h-141l16 78h141l44 196h96l-43 -196h377l-17 -78h-377l-106 -506l-70 -299h4l609 610h125l-474 -469l297 -618h-106l-264 559l-205 -188l-80 -371h-96z" horiz-adv-x="883" unicode="ҟ"/><glyph d="M193 1368l20 94h446l-157 -727l786 727h144l-809 -733l563 -729h-129l-555 729l-152 -729h-102l289 1368h-344z" horiz-adv-x="1237" unicode="Ҡ"/><glyph d="M82 1006l20 81h433l-111 -524l573 524h146l-606 -534l403 -553h-127l-391 549l-113 -549h-98l209 1006h-338z" horiz-adv-x="1071" unicode="ҡ"/><glyph d="M102 0l310 1462h102l-139 -649h760l137 649h100l-289 -1368h168l-98 -450h-104l79 356h-165l151 719h-760l-149 -719h-103z" horiz-adv-x="1423" unicode="Ң"/><glyph d="M74 0l233 1087h96l-100 -479h625l104 479h101l-215 -1003h178l-103 -449h-100l84 365h-178l110 516h-624l-111 -516h-100z" horiz-adv-x="1235" unicode="ң"/><glyph d="M102 0l310 1462h102l-139 -649h760l137 649h467l-19 -94h-368l-289 -1368h-100l151 719h-760l-149 -719h-103z" horiz-adv-x="1532" unicode="Ҥ"/><glyph d="M74 0l233 1087h96l-100 -479h625l104 479h434l-20 -81h-330l-215 -1006h-102l110 516h-624l-111 -516h-100z" horiz-adv-x="1386" unicode="ҥ"/><glyph d="M102 0l310 1462h960l-143 -676q68 11 129 11q236 0 365.5 -134.5t129.5 -377.5q0 -237 -87 -424.5t-238.5 -280t-356.5 -92.5q-134 0 -229 41v104q119 -51 238 -51q169 0 295.5 81t200 247t73.5 369q0 201 -108.5 313.5t-299.5 112.5q-62 0 -131 -9l-147 -696h-100 l288 1366h-757l-289 -1366h-103z" horiz-adv-x="2001" unicode="Ҧ"/><glyph d="M70 0l231 1087h827l-100 -471q68 13 135 13q112 0 195.5 -47.5t131.5 -141t48 -229.5q0 -202 -67.5 -370.5t-184.5 -253.5t-268 -85q-104 0 -178 37v99q88 -48 186 -48q122 0 215 79.5t144 222.5t51 317q0 154 -75 242t-208 88q-63 0 -145 -17l-109 -522h-104l213 995 h-625l-213 -995h-100z" horiz-adv-x="1626" unicode="ҧ"/><glyph d="M172 559q0 259 90 473t253.5 332.5t377.5 118.5q125 0 246 -47l-43 -95q-105 48 -217 48q-172 0 -307 -100.5t-215.5 -294.5t-80.5 -421q0 -246 111 -373.5t318 -127.5q41 0 94 8q-52 77 -75.5 171.5t-23.5 223.5q0 216 56.5 388.5t154 265t219.5 92.5q134 0 196.5 -90.5 t62.5 -276.5q0 -157 -52 -320.5t-144 -289.5t-208 -197q63 -37 170 -37q71 0 123 21v-92q-60 -21 -137 -21q-81 0 -151.5 23t-117.5 61q-76 -22 -180 -22q-250 0 -385 152t-135 427zM805 479q0 -131 24.5 -217.5t75.5 -150.5q115 70 200 188.5t130 266t45 294.5 q0 142 -41 204t-117 62q-83 0 -158 -85.5t-117 -233.5t-42 -328z" horiz-adv-x="1464" unicode="Ҩ"/><glyph d="M102 428q0 200 62.5 354.5t180 238t276.5 83.5q93 0 167 -21l-18 -92q-67 27 -154 27q-122 0 -213.5 -69t-144.5 -209.5t-53 -315.5q0 -171 76.5 -262.5t222.5 -91.5q54 0 98 10q-74 107 -74 289q0 144 44 264.5t123.5 185t185.5 64.5q101 0 161 -64t60 -190 q0 -169 -87 -326t-235 -248q55 -24 127 -24q58 0 117 16v-86q-48 -16 -131 -16q-126 0 -217 63q-76 -28 -174 -28q-195 0 -297.5 114.5t-102.5 333.5zM631 381q0 -96 18 -160t56 -112q121 73 207.5 223.5t86.5 285.5q0 88 -35 130.5t-92 42.5q-108 0 -174.5 -112.5 t-66.5 -297.5z" horiz-adv-x="1212" unicode="ҩ"/><glyph d="M170 535q0 266 104.5 488t284.5 341t402 119q177 0 307 -68l-45 -90q-55 30 -124.5 47t-137.5 17q-197 0 -351.5 -104.5t-245 -304.5t-90.5 -441q0 -225 110.5 -346t317.5 -121q140 0 304 51v-94q-156 -49 -316 -49q-252 0 -386 145t-134 410zM385 -399l14 69 q27 -10 68 -10q118 0 118 160q0 100 -32 180h84q43 -115 43 -190q0 -102 -54.5 -163t-158.5 -61q-50 0 -82 15z" horiz-adv-x="1169" unicode="Ҫ"/><glyph d="M102 397q0 193 73.5 361.5t198.5 257t290 88.5q134 0 241 -43l-28 -90q-107 47 -218 47q-129 0 -232.5 -77t-162.5 -222t-59 -320q0 -158 73.5 -243.5t208.5 -85.5q71 0 131.5 13t131.5 46v-92q-116 -57 -273 -57q-174 0 -274.5 110.5t-100.5 306.5zM240 -399l14 69 q27 -10 68 -10q118 0 118 160q0 100 -32 180h84q43 -115 43 -190q0 -102 -54.5 -163t-158.5 -61q-50 0 -82 15z" horiz-adv-x="887" unicode="ҫ"/><glyph d="M193 1368l20 94h973l-19 -94h-440l-270 -1274h168l-99 -450h-104l80 356h-166l289 1368h-432z" horiz-adv-x="985" unicode="Ҭ"/><glyph d="M72 0l231 1087h80l-33 -210h6q80 113 181.5 170t212.5 57q106 0 163 -67t60 -195h6q77 129 181 195.5t222 66.5q117 0 182.5 -61.5t65.5 -176.5q0 -29 -2.5 -56.5t-19.5 -119.5l-82 -371q-23 -103 -23 -159q0 -97 84 -97q31 0 64 7l-101 -435h-100l80 351q-61 7 -95 51.5 t-34 114.5q0 21 3.5 48t7 49t93.5 431q25 120 25 176q0 77 -43 119.5t-119 42.5q-157 0 -277.5 -137.5t-168.5 -362.5l-109 -518h-102l147 674q25 125 25 162q0 182 -154 182q-106 0 -200 -67.5t-159 -188.5t-100 -287l-100 -475h-98z" horiz-adv-x="1784" unicode="ҭ"/><glyph d="M193 1462h100l201 -817l544 817h117l-631 -932l-108 -530h-105l119 545z" horiz-adv-x="965" unicode="Ү"/><glyph d="M113 1087h100l109 -735q18 -118 32 -250h6q32 67 63 127.5t472 857.5h102l-612 -1103l-102 -476h-93l101 478z" horiz-adv-x="895" unicode="ү"/><glyph d="M131 403l19 82h266l14 60l-237 917h100l201 -817l544 817h117l-631 -932l-10 -45h289l-19 -82h-286l-82 -403h-105l88 403h-268z" horiz-adv-x="965" unicode="Ұ"/><glyph d="M27 -82l18 82h244l-176 1087h100l109 -735q18 -118 32 -250h6q32 67 63 127.5t472 857.5h102l-604 -1087h244l-19 -82h-247l-88 -410h-93l86 410h-249z" horiz-adv-x="895" unicode="ұ"/><glyph d="M-135 0l608 766l-272 696h106l240 -626l483 626h119l-555 -719l248 -649h147l-98 -450h-105l80 356h-94l-254 678l-526 -678h-127z" horiz-adv-x="1014" unicode="Ҳ"/><glyph d="M-72 0l471 555l-245 528h100l207 -462l373 462h120l-448 -534l221 -469h143l-102 -445h-100l82 365h-84l-224 479l-393 -479h-121z" horiz-adv-x="942" unicode="ҳ"/><glyph d="M193 1368l20 94h973l-19 -94h-440l-268 -1274h758l290 1368h101l-289 -1368h168l-98 -450h-105l80 356h-1028l289 1368h-432z" horiz-adv-x="1659" unicode="Ҵ"/><glyph d="M84 1006l20 81h783l-21 -81h-327l-133 -617q-23 -99 -23 -158q0 -74 47.5 -117.5t138.5 -43.5q109 0 206 65t163 183t102 284l105 485h98l-164 -765q-22 -104 -22 -170q0 -89 84 -89q23 0 63 7l-100 -435h-100l79 351q-65 12 -93 53t-28 116l3 56h-7q-78 -109 -183 -168 t-222 -59q-133 0 -200.5 62t-67.5 181q0 60 22 170l131 609h-354z" horiz-adv-x="1346" unicode="ҵ"/><glyph d="M205 801q0 64 22 164l105 497h102l-102 -483q-25 -116 -25 -172q0 -92 57 -139t162 -47q195 0 412 90l160 751h100l-289 -1368h168l-98 -450h-105l80 356h-166l132 621q-219 -91 -408 -91q-146 0 -226.5 69.5t-80.5 201.5z" horiz-adv-x="1249" unicode="Ҷ"/><glyph d="M156 643q0 74 22 176l58 268h100q-69 -318 -75.5 -362t-6.5 -72q0 -74 44.5 -117.5t141.5 -43.5q163 0 290 135.5t175 369.5l19 90h98l-215 -1003h178l-102 -449h-101l84 365h-178l84 399q24 122 59 228h-8q-161 -221 -401 -221q-128 0 -197 60t-69 177z" horiz-adv-x="1124" unicode="ҷ"/><glyph d="M205 801q0 64 22 164l105 497h102l-102 -483q-25 -116 -25 -172q0 -92 57 -139t162 -47h13l79 376h87l-80 -370q144 16 313 84l160 751h100l-309 -1462h-101l132 621q-153 -66 -314 -86l-67 -314h-86l65 309h-6q-146 0 -226.5 69.5t-80.5 201.5z" horiz-adv-x="1192" unicode="Ҹ"/><glyph d="M156 643q0 74 22 176l58 268h100q-69 -318 -75.5 -362t-6.5 -72q0 -74 43.5 -117.5t138.5 -43.5l66 307h86l-64 -297q137 32 238.5 164.5t142.5 330.5l19 90h98l-234 -1087h-102q50 229 75 345.5t70 281.5h-8q-131 -182 -317 -215l-55 -267h-86l53 261q-128 0 -195 61.5 t-67 175.5z" horiz-adv-x="1098" unicode="ҹ"/><glyph d="M100 0l310 1462h100l-131 -620q212 90 407 90q147 0 227.5 -69.5t80.5 -200.5q0 -62 -23 -164l-104 -498h-103l103 483q24 111 24 172q0 94 -57.5 140.5t-161.5 46.5q-189 0 -412 -90l-159 -752h-101z" horiz-adv-x="1274" unicode="Һ"/><glyph d="M72 0l233 1087h103q-49 -226 -74 -342t-72 -284h8q78 111 182 166t220 55q128 0 197 -62t69 -176q0 -42 -8 -93t-72 -351h-100q69 321 75.5 364t6.5 70q0 74 -45 118t-142 44q-166 0 -292 -139t-173 -367l-18 -90h-98z" horiz-adv-x="1149" unicode="һ"/><glyph d="M131 870q0 70 31 121h100q-31 -54 -31 -112q0 -91 101 -91h33q69 315 275.5 505t483.5 190q199 0 303.5 -85t104.5 -241q0 -234 -231.5 -347.5t-722.5 -113.5h-129q-9 -56 -9 -127q0 -245 106.5 -370t313.5 -125q106 0 210 20t228 68v-96q-126 -49 -231 -67.5t-217 -18.5 q-243 0 -378.5 151t-135.5 424q0 85 8 141l-26 -1q-88 0 -137.5 47.5t-49.5 127.5zM465 788h131q416 0 620.5 89t204.5 272q0 117 -77 178.5t-220 61.5q-231 0 -407.5 -158.5t-251.5 -442.5z" horiz-adv-x="1552" unicode="Ҽ"/><glyph d="M100 680q0 70 31 121h96q-30 -55 -30 -113q0 -94 104 -94h29q53 230 195 370t323 140q114 0 182 -61t68 -166q0 -181 -163.5 -276t-485.5 -95h-33q-6 -44 -6 -98q0 -165 74 -251.5t212 -86.5q133 0 277 73v-94q-140 -69 -299 -69q-173 0 -270 109.5t-97 305.5q0 58 6 111 l-26 -1q-88 0 -137.5 47.5t-49.5 127.5zM430 594h49q516 0 516 270q0 70 -44.5 112t-114.5 42q-131 0 -243.5 -115.5t-162.5 -308.5z" horiz-adv-x="1143" unicode="ҽ"/><glyph d="M131 870q0 70 31 121h100q-31 -54 -31 -112q0 -91 101 -91h33q69 315 275.5 505t483.5 190q199 0 303.5 -85t104.5 -241q0 -234 -231.5 -347.5t-722.5 -113.5h-129q-9 -56 -9 -127q0 -245 106.5 -370t313.5 -125q106 0 210 20t228 68v-96q-118 -47 -216 -65.5t-201 -20.5 l-72 -336h-104l75 340q-212 21 -328 170.5t-116 400.5q0 85 8 141l-26 -1q-88 0 -137.5 47.5t-49.5 127.5zM465 788h131q416 0 620.5 89t204.5 272q0 117 -77 178.5t-220 61.5q-231 0 -407.5 -158.5t-251.5 -442.5z" horiz-adv-x="1552" unicode="Ҿ"/><glyph d="M100 680q0 70 31 121h96q-30 -55 -30 -113q0 -94 104 -94h29q53 230 195 370t323 140q114 0 182 -61t68 -166q0 -181 -163.5 -276t-485.5 -95h-33q-6 -44 -6 -98q0 -165 74 -251.5t212 -86.5q133 0 277 73v-94q-131 -65 -287 -69l-63 -345h-101l68 353 q-133 23 -208 127.5t-75 279.5q0 58 6 111l-26 -1q-88 0 -137.5 47.5t-49.5 127.5zM430 594h49q516 0 516 270q0 70 -44.5 112t-114.5 42q-131 0 -243.5 -115.5t-162.5 -308.5z" horiz-adv-x="1143" unicode="ҿ"/><glyph d="M102 0l310 1462h98l-309 -1462h-99z" horiz-adv-x="504" unicode="Ӏ"/><glyph d="M-88 0l729 760l-424 702h125l414 -704l147 704h103l-152 -706l692 706h140l-717 -725l434 -737h-123l-430 737l-154 -737h-102l158 739l-699 -739h-141zM720 1792q0 38 13 74h82q-8 -45 -8 -62q0 -68 42.5 -103.5t143.5 -35.5q231 0 258 201h94q-17 -137 -110.5 -212 t-243.5 -75q-140 0 -205.5 58t-65.5 155z" horiz-adv-x="1491" unicode="Ӂ"/><glyph d="M-51 -4l18 92q56 -18 127 -18q116 0 210 79t149 219.5t55 297.5q0 177 -59 262.5t-185 85.5q-52 0 -112 -10v88q72 12 120 12q334 0 334 -420q0 -50 -4 -82h164l104 485h95l-103 -485h162q28 149 96.5 262t170.5 176.5t233 63.5q77 0 135 -17l-19 -92q-57 19 -127 19 q-113 0 -206.5 -76t-150 -218.5t-56.5 -301.5q0 -177 59 -262.5t184 -85.5q53 0 113 10v-88q-72 -12 -121 -12q-334 0 -334 419q0 46 9 115h-166l-109 -514h-96l109 514h-158q-30 -160 -100 -280.5t-173 -187t-233 -66.5q-75 0 -135 16zM694 1454q0 38 13 74h82 q-8 -45 -8 -62q0 -68 42.5 -103.5t143.5 -35.5q231 0 258 201h94q-17 -137 -110.5 -212t-243.5 -75q-140 0 -205.5 58t-65.5 155z" horiz-adv-x="1581" unicode="ӂ"/><glyph d="M102 0l310 1462h102l-158 -727l787 727h143l-788 -710q40 4 82 4q228 0 352.5 -127.5t124.5 -364.5q0 -233 -86 -414.5t-238 -271.5t-358 -90q-135 0 -230 41v104q119 -51 238 -51q171 0 298 78.5t199 238t72 359.5q0 195 -104.5 300.5t-302.5 105.5q-97 0 -205 -19 l-135 -645h-103z" horiz-adv-x="1204" unicode="Ӄ"/><glyph d="M72 0l225 1087h98l-110 -524l573 524h146l-555 -489q173 -5 262.5 -112.5t89.5 -295.5q0 -203 -67.5 -371t-183.5 -252.5t-269 -84.5q-101 0 -179 37v98q86 -47 187 -47q122 0 215 80t143.5 222t50.5 316q0 159 -78.5 245.5t-228.5 86.5q-61 0 -117 -10l-104 -510h-98z" horiz-adv-x="942" unicode="ӄ"/><glyph d="M-84 -6v96q45 -16 102 -16q78 0 132.5 44t104 143.5t141 383t245.5 817.5h633l-291 -1368h164l-217 -450h-115l209 356h-160l289 1368h-434l-40 -137q-132 -452 -217 -706t-142 -354.5t-129 -147t-173 -46.5q-54 0 -102 17z" horiz-adv-x="1325" unicode="Ӆ"/><glyph d="M-102 -2v90q29 -8 59 -8q74 0 122 38t94.5 131t121.5 312q84 249 146 348.5t143 143t200 43.5q81 0 172 -17l-215 -999h164l-200 -447h-117l207 367h-166l215 1006q-38 6 -74 6q-92 0 -152 -39.5t-112 -134t-123 -306.5q-86 -255 -141 -354t-121 -143.5t-162 -44.5 q-37 0 -61 8z" horiz-adv-x="1059" unicode="ӆ"/><glyph d="M102 0l310 1462h102l-139 -649h760l137 649h100l-280 -1329q-72 -339 -231 -490t-441 -151q-140 0 -254 45v105q44 -20 122 -37t142 -17q234 0 366.5 130.5t194.5 418.5l123 582h-760l-149 -719h-103z" horiz-adv-x="1366" unicode="Ӈ"/><glyph d="M74 0l233 1087h96l-100 -479h625l104 479h101l-240 -1132q-43 -169 -103.5 -263t-151 -142t-218.5 -48q-102 0 -178 37v99q88 -48 186 -48q146 0 234.5 93.5t134.5 306.5l112 526h-624l-111 -516h-100z" horiz-adv-x="1208" unicode="ӈ"/><glyph d="M102 0l310 1462h102l-139 -649h760l137 649h100l-289 -1368h164l-217 -450h-115l209 356h-161l151 719h-760l-149 -719h-103z" horiz-adv-x="1423" unicode="Ӊ"/><glyph d="M74 0l233 1087h96l-100 -479h625l104 479h101l-222 -1003h164l-201 -451h-116l207 367h-166l110 516h-624l-111 -516h-100z" horiz-adv-x="1235" unicode="ӊ"/><glyph d="M205 801q0 64 22 164l105 497h102l-102 -483q-25 -116 -25 -172q0 -92 57 -139t162 -47q195 0 412 90l160 751h100l-309 -1462h-166l-72 -356h-104l94 450h168l111 527q-219 -91 -408 -91q-146 0 -226.5 69.5t-80.5 201.5z" horiz-adv-x="1192" unicode="Ӌ"/><glyph d="M156 643q0 74 22 176l58 268h100q-69 -318 -75.5 -362t-6.5 -72q0 -74 44.5 -117.5t141.5 -43.5q163 0 290 135.5t175 369.5l19 90h98l-234 -1087h-139l-74 -367h-98l92 451h136l49 229q26 124 77 314h-8q-161 -221 -401 -221q-128 0 -197 60t-69 177z" horiz-adv-x="1098" unicode="ӌ"/><glyph d="M109 0l309 1462h143l205 -1257h6l733 1257h150l-283 -1368h164l-217 -450h-115l209 356h-160l191 901q79 369 100 447h-6l-780 -1348h-51l-222 1348h-6q-20 -154 -78 -426l-196 -922h-96z" horiz-adv-x="1706" unicode="Ӎ"/><glyph d="M45 0l231 1087h101l153 -798q27 -158 27 -170q26 55 62.5 117t529.5 851h117l-217 -1007h163l-200 -447h-117l207 367h-158l197 930q-17 -32 -39 -70t-531 -860h-67l-146 723q-6 29 -17.5 99t-12.5 102l-193 -924h-90z" horiz-adv-x="1368" unicode="ӎ"/><glyph d="M102 0l310 1462h98l-309 -1462h-99z" horiz-adv-x="504" unicode="ӏ"/><glyph d="M-111 0l822 1468h67l201 -1468h-105l-69 520h-512l-287 -520h-117zM344 612h449l-39 291q-31 242 -39 402q-30 -63 -64.5 -130t-306.5 -563zM485 1792q0 38 13 74h82q-8 -45 -8 -62q0 -68 42.5 -103.5t143.5 -35.5q231 0 258 201h94q-17 -137 -110.5 -212t-243.5 -75 q-140 0 -205.5 58t-65.5 155z" horiz-adv-x="1059" unicode="Ӑ"/><glyph d="M102 354q0 197 75 376t200.5 276.5t277.5 97.5q232 0 279 -219h6l59 202h80l-229 -1087h-82l45 274h-6q-84 -142 -187 -218t-237 -76q-281 0 -281 374zM205 365q0 -152 50 -223.5t151 -71.5q89 0 177.5 62t159 166t107.5 230t37 213q0 79 -26 141.5t-77 99t-127 36.5 q-124 0 -224 -82t-164 -245.5t-64 -325.5zM428 1454q0 38 13 74h82q-8 -45 -8 -62q0 -68 42.5 -103.5t143.5 -35.5q231 0 258 201h94q-17 -137 -110.5 -212t-243.5 -75q-140 0 -205.5 58t-65.5 155z" horiz-adv-x="1133" unicode="ӑ"/><glyph d="M-111 0l822 1468h67l201 -1468h-105l-69 520h-512l-287 -520h-117zM344 612h449l-39 291q-31 242 -39 402q-30 -63 -64.5 -130t-306.5 -563zM535 1704q0 49 20.5 78t56.5 29q54 0 54 -64q0 -48 -21 -77t-55 -29q-55 0 -55 63zM879 1704q0 49 20.5 78t56.5 29q54 0 54 -64 q0 -48 -21 -77t-55 -29q-55 0 -55 63z" horiz-adv-x="1059" unicode="Ӓ"/><glyph d="M102 354q0 197 75 376t200.5 276.5t277.5 97.5q232 0 279 -219h6l59 202h80l-229 -1087h-82l45 274h-6q-84 -142 -187 -218t-237 -76q-281 0 -281 374zM205 365q0 -152 50 -223.5t151 -71.5q89 0 177.5 62t159 166t107.5 230t37 213q0 79 -26 141.5t-77 99t-127 36.5 q-124 0 -224 -82t-164 -245.5t-64 -325.5zM477 1366q0 49 20.5 78t56.5 29q54 0 54 -64q0 -48 -21 -77t-55 -29q-55 0 -55 63zM821 1366q0 49 20.5 78t56.5 29q54 0 54 -64q0 -48 -21 -77t-55 -29q-55 0 -55 63z" horiz-adv-x="1133" unicode="ӓ"/><glyph d="M-117 0l946 1462h883l-20 -94h-625l-117 -553h590l-20 -94h-588l-135 -627h626l-20 -94h-727l110 522h-444l-328 -522h-131zM408 627h401l156 741h-88z" horiz-adv-x="1640" unicode="Ӕ"/><glyph d="M102 344q0 206 70.5 384.5t192.5 277t274 98.5q106 0 166 -56.5t74 -156.5h10l59 192h66l-35 -186q139 207 350 207q112 0 175 -61.5t63 -172.5q0 -179 -158.5 -271.5t-470.5 -92.5h-39q-8 -51 -8 -96q0 -161 69.5 -250.5t217.5 -89.5q69 0 133.5 21t130.5 52v-94 q-80 -37 -147 -53t-140 -16q-123 0 -211 60t-117 165l-39 -205h-77l41 254h-9q-94 -142 -189 -208t-208 -66q-120 0 -182 94t-62 270zM205 352q0 -150 42.5 -216t121.5 -66q67 0 138.5 42t134 117.5t106 170.5t63.5 199t20 165q0 118 -49 186t-141 68q-123 0 -223 -86 t-156.5 -240t-56.5 -340zM913 594h48q263 0 383 67t120 203q0 71 -38.5 112.5t-108.5 41.5q-119 0 -232 -115.5t-172 -308.5z" horiz-adv-x="1632" unicode="ӕ"/><glyph d="M102 0l310 1462h727l-21 -94h-624l-117 -553h590l-21 -94h-588l-135 -627h627l-21 -94h-727zM507 1792q0 38 13 74h82q-8 -45 -8 -62q0 -68 42.5 -103.5t143.5 -35.5q231 0 258 201h94q-17 -137 -110.5 -212t-243.5 -75q-140 0 -205.5 58t-65.5 155z" horiz-adv-x="1067" unicode="Ӗ"/><glyph d="M102 395q0 181 71 347t195.5 264t274.5 98q114 0 182 -61t68 -166q0 -181 -163.5 -276t-485.5 -95h-33q-6 -44 -6 -98q0 -165 74 -251.5t213 -86.5q132 0 276 73v-94q-140 -69 -299 -69q-173 0 -270 109.5t-97 305.5zM225 594h49q517 0 517 270q0 67 -43.5 110.5 t-116.5 43.5q-131 0 -243.5 -115.5t-162.5 -308.5zM368 1454q0 38 13 74h82q-8 -45 -8 -62q0 -68 42.5 -103.5t143.5 -35.5q231 0 258 201h94q-17 -137 -110.5 -212t-243.5 -75q-140 0 -205.5 58t-65.5 155z" horiz-adv-x="928" unicode="ӗ"/><glyph d="M94 305q0 236 231.5 348.5t723.5 112.5h129q8 50 8 127q0 244 -106.5 370t-313.5 126q-210 0 -438 -89v97q118 47 225.5 66.5t222.5 19.5q241 0 377.5 -151.5t136.5 -424.5q0 -245 -107 -466.5t-285 -341t-396 -119.5q-199 0 -303.5 85t-104.5 240zM205 313 q0 -118 77 -178.5t220 -60.5q230 0 407 157t252 443h-131q-414 0 -619.5 -88.5t-205.5 -272.5z" horiz-adv-x="1356" unicode="Ә"/><glyph d="M61 207q0 181 163.5 276t486.5 95h32q7 37 7 98q0 165 -74 251.5t-213 86.5q-131 0 -277 -74v94q143 70 299 70q173 0 270 -109.5t97 -306.5q0 -189 -75 -355.5t-197.5 -259.5t-268.5 -93q-114 0 -182 61t-68 166zM164 219q0 -69 43.5 -111t116.5 -42q132 0 244 116 t161 307h-49q-516 0 -516 -270z" horiz-adv-x="928" unicode="ә"/><glyph d="M94 305q0 236 231.5 348.5t723.5 112.5h129q8 50 8 127q0 244 -106.5 370t-313.5 126q-210 0 -438 -89v97q118 47 225.5 66.5t222.5 19.5q241 0 377.5 -151.5t136.5 -424.5q0 -245 -107 -466.5t-285 -341t-396 -119.5q-199 0 -303.5 85t-104.5 240zM205 313 q0 -118 77 -178.5t220 -60.5q230 0 407 157t252 443h-131q-414 0 -619.5 -88.5t-205.5 -272.5zM621 1704q0 49 20.5 78t56.5 29q54 0 54 -64q0 -48 -21 -77t-55 -29q-55 0 -55 63zM965 1704q0 49 20.5 78t56.5 29q54 0 54 -64q0 -48 -21 -77t-55 -29q-55 0 -55 63z" horiz-adv-x="1356" unicode="Ӛ"/><glyph d="M61 207q0 181 163.5 276t486.5 95h32q7 37 7 98q0 165 -74 251.5t-213 86.5q-131 0 -277 -74v94q143 70 299 70q173 0 270 -109.5t97 -306.5q0 -189 -75 -355.5t-197.5 -259.5t-268.5 -93q-114 0 -182 61t-68 166zM164 219q0 -69 43.5 -111t116.5 -42q132 0 244 116 t161 307h-49q-516 0 -516 -270zM376 1366q0 49 20.5 78t56.5 29q54 0 54 -64q0 -48 -21 -77t-55 -29q-55 0 -55 63zM720 1366q0 49 20.5 78t56.5 29q54 0 54 -64q0 -48 -21 -77t-55 -29q-55 0 -55 63z" horiz-adv-x="928" unicode="ӛ"/><glyph d="M-88 0l729 760l-424 702h125l414 -704l147 704h103l-152 -706l692 706h140l-717 -725l434 -737h-123l-430 737l-154 -737h-102l158 739l-699 -739h-141zM771 1704q0 49 20.5 78t56.5 29q54 0 54 -64q0 -48 -21 -77t-55 -29q-55 0 -55 63zM1115 1704q0 49 20.5 78t56.5 29 q54 0 54 -64q0 -48 -21 -77t-55 -29q-55 0 -55 63z" horiz-adv-x="1491" unicode="Ӝ"/><glyph d="M-51 -4l18 92q56 -18 127 -18q116 0 210 79t149 219.5t55 297.5q0 177 -59 262.5t-185 85.5q-52 0 -112 -10v88q72 12 120 12q334 0 334 -420q0 -50 -4 -82h164l104 485h95l-103 -485h162q28 149 96.5 262t170.5 176.5t233 63.5q77 0 135 -17l-19 -92q-57 19 -127 19 q-113 0 -206.5 -76t-150 -218.5t-56.5 -301.5q0 -177 59 -262.5t184 -85.5q53 0 113 10v-88q-72 -12 -121 -12q-334 0 -334 419q0 46 9 115h-166l-109 -514h-96l109 514h-158q-30 -160 -100 -280.5t-173 -187t-233 -66.5q-75 0 -135 16zM721 1366q0 49 20.5 78t56.5 29 q54 0 54 -64q0 -48 -21 -77t-55 -29q-55 0 -55 63zM1065 1366q0 49 20.5 78t56.5 29q54 0 54 -64q0 -48 -21 -77t-55 -29q-55 0 -55 63z" horiz-adv-x="1581" unicode="ӝ"/><glyph d="M-31 59v117q183 -106 402 -106q204 0 314 93.5t110 260.5q0 287 -373 287h-182l18 96h178q131 0 237 45t158 123.5t52 183.5q0 114 -67 176t-191 62q-168 0 -340 -119l-54 76q190 129 406 129q165 0 257.5 -82t92.5 -232q0 -160 -91 -263.5t-267 -145.5v-4 q130 -23 199 -110.5t69 -227.5q0 -130 -67.5 -232.5t-187 -154t-284.5 -51.5q-211 0 -389 79zM454 1704q0 49 20.5 78t56.5 29q54 0 54 -64q0 -48 -21 -77t-55 -29q-55 0 -55 63zM798 1704q0 49 20.5 78t56.5 29q54 0 54 -64q0 -48 -21 -77t-55 -29q-55 0 -55 63z" horiz-adv-x="1020" unicode="Ӟ"/><glyph d="M-18 45v109q139 -86 290 -86q143 0 225.5 68.5t82.5 185.5q0 107 -64.5 154.5t-206.5 47.5h-84l21 92h90q146 0 226.5 59.5t80.5 170.5q0 78 -52 125t-140 47q-61 0 -117.5 -17t-130.5 -63l-41 80q83 50 153 68t156 18q130 0 202 -65t72 -181q0 -113 -66 -187t-187 -98 v-4q94 -20 142 -82.5t48 -158.5q0 -102 -51 -181.5t-145 -123t-222 -43.5q-86 0 -160 18.5t-122 46.5zM298 1366q0 49 20.5 78t56.5 29q54 0 54 -64q0 -48 -21 -77t-55 -29q-55 0 -55 63zM642 1366q0 49 20.5 78t56.5 29q54 0 54 -64q0 -48 -21 -77t-55 -29q-55 0 -55 63z" horiz-adv-x="799" unicode="ӟ"/><glyph d="M10 59v117q183 -106 393 -106q131 0 224.5 47t143.5 129.5t50 189.5q0 145 -95 214t-300 69h-104l18 88l584 561h-609l23 94h743l-18 -88l-594 -565q226 -2 340.5 -94.5t114.5 -270.5q0 -136 -68 -245t-186.5 -164t-278.5 -55q-100 0 -190.5 17.5t-190.5 61.5z" horiz-adv-x="1044" unicode="Ӡ"/><glyph d="M-164 -324q54 -35 136 -58.5t157 -23.5q134 0 232.5 56t152 157t53.5 228q0 311 -342 311h-75l14 80l504 573h-535l19 88h655l-16 -79l-508 -578q174 -4 279.5 -107.5t105.5 -277.5q0 -156 -66.5 -279t-189.5 -190.5t-293 -67.5q-163 0 -283 64v104z" horiz-adv-x="836" unicode="ӡ"/><glyph d="M102 0l310 1462h102l-186 -878q-79 -346 -95 -406l1035 1284h110l-309 -1462h-100q120 569 184.5 876t99.5 431l-1050 -1307h-101zM649 1583l18 88h508l-18 -88h-508z" horiz-adv-x="1368" unicode="Ӣ"/><glyph d="M109 227q0 60 22 170l150 690h100l-152 -698q-22 -106 -22 -158q0 -74 47.5 -117.5t138.5 -43.5q110 0 207.5 65.5t164 187t99.5 279.5l105 485h98l-231 -1087h-80l28 205h-6q-167 -221 -403 -221q-131 0 -198.5 62t-67.5 181zM453 1245l18 88h508l-18 -88h-508z" horiz-adv-x="1143" unicode="ӣ"/><glyph d="M102 0l310 1462h102l-186 -878q-79 -346 -95 -406l1035 1284h110l-309 -1462h-100q120 569 184.5 876t99.5 431l-1050 -1307h-101zM672 1704q0 49 20.5 78t56.5 29q54 0 54 -64q0 -48 -21 -77t-55 -29q-55 0 -55 63zM1016 1704q0 49 20.5 78t56.5 29q54 0 54 -64 q0 -48 -21 -77t-55 -29q-55 0 -55 63z" horiz-adv-x="1368" unicode="Ӥ"/><glyph d="M109 227q0 60 22 170l150 690h100l-152 -698q-22 -106 -22 -158q0 -74 47.5 -117.5t138.5 -43.5q110 0 207.5 65.5t164 187t99.5 279.5l105 485h98l-231 -1087h-80l28 205h-6q-167 -221 -403 -221q-131 0 -198.5 62t-67.5 181zM477 1366q0 49 20.5 78t56.5 29 q54 0 54 -64q0 -48 -21 -77t-55 -29q-55 0 -55 63zM821 1366q0 49 20.5 78t56.5 29q54 0 54 -64q0 -48 -21 -77t-55 -29q-55 0 -55 63z" horiz-adv-x="1143" unicode="ӥ"/></font>
</defs>
</svg>
